<?xml version="1.0" standalone="no"?>
<!DOCTYPE svg PUBLIC "-//W3C//DTD SVG 1.1//EN" "http://www.w3.org/Graphics/SVG/1.1/DTD/svg11.dtd" >
<svg xmlns="http://www.w3.org/2000/svg">
<metadata>Generated by IcoMoon</metadata>
<defs>
<font id="icomoon" horiz-adv-x="1024">
<font-face units-per-em="1024" ascent="960" descent="-64" />
<missing-glyph horiz-adv-x="1024" />
<glyph unicode="&#x20;" horiz-adv-x="512" d="" />
<glyph unicode="&#xe900;" glyph-name="accounts" d="M197.356-30.915h602.104c29.555 0 53.422 23.186 53.422 51.661v80.631c28.475 1.894 50.847 24.286 50.847 51.534v724.513c0 28.475-24.953 51.661-54.508 51.661h-684.203c-29.555 0-54.508-23.186-54.508-51.674v-825.159c0-0.261 0.451-0.54 0.451-0.807 0-45.419 39-82.36 86.396-82.36zM143.051 877.411c0 10.544 10.36 19.131 21.966 19.131h684.203c11.606 0 21.966-8.581 21.966-19.119v-724.513c0-10.538-10.36-19.081-21.966-19.081h-651.864c-20.161 0-38.034-6.731-54.305-17.898zM143.966 52.080c0.356 27.184 24.172 49.208 53.39 49.208h622.983v-80.542c0-10.538-9.273-19.119-20.879-19.119h-602.104c-29.441 0-53.39 22.36-53.39 49.831zM255.83 245.695h502.576c8.987 0 16.271 7.284 16.271 16.271s-7.284 16.271-16.271 16.271h-502.576c-8.987 0-16.271-7.284-16.271-16.271s7.284-16.271 16.271-16.271zM255.83 347.39h502.576c8.987 0 16.271 7.284 16.271 16.271s-7.284 16.271-16.271 16.271h-502.576c-8.987 0-16.271-7.284-16.271-16.271s7.284-16.271 16.271-16.271zM320.756 481.627h372.725c8.987 0 16.271 7.284 16.271 16.271s-7.284 16.271-16.271 16.271h-29.752v213.299c0.095 4.303-1.525 8.466-4.506 11.568-2.981 3.108-7.068 4.894-11.377 4.964h-61.805c-4.297-0.070-8.39-1.856-11.377-4.964-2.975-3.102-4.589-7.265-4.494-11.568v-213.299h-10.169v119.542c-0.35 9.229-7.856 16.576-17.097 16.729h-61.811c-9.153-0.184-16.525-7.576-16.684-16.729v-119.542h-10.169v169.271c-0.025 4.271-1.767 8.352-4.824 11.326-3.064 2.975-7.195 4.589-11.466 4.487h-61.799c-4.189 0.070-8.212-1.589-11.136-4.576s-4.487-7.055-4.328-11.237v-169.271h-24.413v252.814c0 8.987-7.284 16.271-16.271 16.271s-16.271-7.284-16.271-16.271v-269.695c0-8.981 8.040-15.661 17.028-15.661zM602.712 711.458h28.475v-197.288h-28.475zM496.949 617.898h30.508v-103.729h-30.508zM393.22 666.712h28.475v-152.542h-28.475z" />
<glyph unicode="&#xe901;" glyph-name="activity" d="M938.667 490.667h-170.667c-18.731 0-34.645-12.075-40.491-29.184l-87.509-262.571-215.509 646.571c-7.467 22.357-31.616 34.432-53.973 27.008-13.227-4.395-22.827-14.635-27.008-27.008l-118.272-354.816h-139.904c-23.552 0-42.667-19.115-42.667-42.667s19.115-42.667 42.667-42.667h170.667c18.048 0.128 34.56 11.392 40.491 29.184l87.509 262.571 215.509-646.571c4.181-12.373 13.781-22.571 26.965-26.965 22.357-7.467 46.507 4.651 53.973 26.965l118.315 354.816h139.904c23.552 0 42.667 19.115 42.667 42.667s-19.115 42.667-42.667 42.667z" />
<glyph unicode="&#xe902;" glyph-name="airplay" d="M213.333 277.333h-42.667c-5.845 0-11.349 1.152-16.299 3.2-5.205 2.133-9.899 5.333-13.867 9.301s-7.125 8.661-9.301 13.867c-2.048 4.949-3.2 10.453-3.2 16.299v426.667c0 5.845 1.152 11.349 3.2 16.299 2.133 5.205 5.333 9.899 9.301 13.867s8.661 7.125 13.867 9.301c4.949 2.048 10.453 3.2 16.299 3.2h682.667c5.845 0 11.349-1.152 16.299-3.2 5.205-2.133 9.899-5.333 13.867-9.301s7.125-8.661 9.301-13.867c2.048-4.949 3.2-10.453 3.2-16.299v-426.667c0-5.845-1.152-11.349-3.2-16.299-2.133-5.205-5.333-9.899-9.301-13.867s-8.661-7.125-13.867-9.301c-4.949-2.048-10.453-3.2-16.299-3.2h-42.667c-23.552 0-42.667-19.115-42.667-42.667s19.115-42.667 42.667-42.667h42.667c17.28 0 33.835 3.456 48.981 9.728 15.701 6.485 29.781 16 41.557 27.776s21.291 25.856 27.776 41.557c6.229 15.104 9.685 31.659 9.685 48.939v426.667c0 17.28-3.456 33.835-9.728 48.981-6.485 15.701-16 29.781-27.776 41.557s-25.856 21.291-41.557 27.776c-15.104 6.229-31.659 9.685-48.939 9.685h-682.667c-17.28 0-33.835-3.456-48.981-9.728-15.659-6.485-29.739-16-41.515-27.776s-21.291-25.856-27.776-41.515c-6.272-15.147-9.728-31.701-9.728-48.981v-426.667c0-17.28 3.456-33.835 9.728-48.981 6.485-15.701 16-29.781 27.776-41.557s25.856-21.291 41.557-27.776c15.104-6.229 31.659-9.685 48.939-9.685h42.667c23.552 0 42.667 19.115 42.667 42.667s-19.115 42.667-42.667 42.667zM544.768 347.307c-1.493 1.835-3.371 3.712-5.461 5.461-18.091 15.104-45.013 12.629-60.075-5.461l-213.333-256c-6.144-7.339-9.899-16.896-9.899-27.307 0-23.552 19.115-42.667 42.667-42.667h426.667c9.6-0.043 19.328 3.2 27.307 9.899 18.091 15.104 20.565 41.984 5.461 60.075zM512 253.355l122.24-146.688h-244.48z" />
<glyph unicode="&#xe903;" glyph-name="alert-circle" d="M981.333 448c0 63.488-12.629 124.16-35.541 179.499-23.808 57.472-58.667 109.141-101.888 152.363s-94.891 78.123-152.363 101.888c-55.381 22.955-116.053 35.584-179.541 35.584s-124.16-12.629-179.499-35.541c-57.472-23.808-109.141-58.667-152.363-101.931s-78.123-94.891-101.931-152.363c-22.912-55.339-35.541-116.011-35.541-179.499s12.629-124.16 35.541-179.499c23.808-57.472 58.667-109.141 101.888-152.363s94.891-78.123 152.363-101.888c55.381-22.955 116.053-35.584 179.541-35.584s124.16 12.629 179.499 35.541c57.472 23.808 109.141 58.667 152.363 101.888s78.123 94.891 101.888 152.363c22.955 55.381 35.584 116.053 35.584 179.541zM896 448c0-52.096-10.368-101.675-29.056-146.859-19.456-46.976-47.957-89.259-83.413-124.672s-77.739-63.957-124.672-83.413c-45.184-18.688-94.763-29.056-146.859-29.056s-101.675 10.368-146.859 29.056c-46.976 19.456-89.259 47.957-124.672 83.413-35.456 35.456-63.957 77.739-83.413 124.672-18.688 45.184-29.056 94.763-29.056 146.859s10.368 101.675 29.056 146.859c19.456 46.976 47.957 89.259 83.413 124.672s77.739 63.957 124.672 83.413c45.184 18.688 94.763 29.056 146.859 29.056s101.675-10.368 146.859-29.056c46.976-19.456 89.259-47.957 124.672-83.413 35.456-35.456 63.957-77.739 83.413-124.672 18.688-45.184 29.056-94.763 29.056-146.859zM469.333 618.667v-170.667c0-23.552 19.115-42.667 42.667-42.667s42.667 19.115 42.667 42.667v170.667c0 23.552-19.115 42.667-42.667 42.667s-42.667-19.115-42.667-42.667zM554.667 277.333c0 23.552-19.115 42.667-42.667 42.667s-42.667-19.115-42.667-42.667 19.115-42.667 42.667-42.667 42.667 19.115 42.667 42.667z" />
<glyph unicode="&#xe904;" glyph-name="alert-octagon" d="M335.36 917.333c-10.923 0-21.845-4.181-30.165-12.501l-250.027-250.027c-7.723-7.723-12.501-18.389-12.501-30.165v-353.28c0-10.923 4.181-21.845 12.501-30.165l250.027-250.027c7.723-7.723 18.389-12.501 30.165-12.501h353.28c10.923 0 21.845 4.181 30.165 12.501l250.027 250.027c7.723 7.723 12.501 18.389 12.501 30.165v353.28c0 10.923-4.181 21.845-12.501 30.165l-250.027 250.027c-7.723 7.723-18.389 12.501-30.165 12.501zM353.024 832h317.952l225.024-225.024v-317.952l-225.024-225.024h-317.952l-225.024 225.024v317.952zM469.333 618.667v-170.667c0-23.552 19.115-42.667 42.667-42.667s42.667 19.115 42.667 42.667v170.667c0 23.552-19.115 42.667-42.667 42.667s-42.667-19.115-42.667-42.667zM554.667 277.333c0 23.552-19.115 42.667-42.667 42.667s-42.667-19.115-42.667-42.667 19.115-42.667 42.667-42.667 42.667 19.115 42.667 42.667z" />
<glyph unicode="&#xe905;" glyph-name="alert-triangle" d="M475.648 773.376c3.115 5.248 7.893 10.325 14.251 14.165 4.992 3.029 10.283 4.907 15.616 5.717 5.547 0.853 11.221 0.597 16.683-0.725s10.581-3.712 15.147-7.040c4.352-3.2 8.149-7.253 11.093-12.075l361.216-603.008c3.285-5.589 5.461-12.715 5.547-20.565 0.085-5.845-1.024-11.349-3.029-16.341-2.091-5.205-5.205-9.941-9.131-13.952s-8.619-7.211-13.781-9.429c-4.949-2.091-10.411-3.328-15.787-3.371l-722.731-0.085c-6.485 0.043-13.696 1.749-20.523 5.717-5.077 2.944-9.259 6.656-12.501 10.923-3.413 4.437-5.931 9.557-7.381 14.976s-1.835 11.093-1.109 16.64c0.683 5.333 2.432 10.667 5.035 15.147zM402.432 817.237l-361.387-603.307c-8.96-15.531-14.293-31.616-16.427-47.829-2.219-16.853-1.024-33.792 3.285-49.877s11.733-31.36 22.101-44.843c9.984-13.013 22.613-24.277 37.547-32.896 19.797-11.435 41.643-17.067 62.933-17.152h722.901c17.707 0.213 34.261 3.797 49.323 10.24 15.616 6.656 29.611 16.341 41.259 28.245s20.992 26.069 27.307 41.856c6.101 15.189 9.344 31.787 9.173 49.067-0.256 22.869-6.528 44.544-17.323 62.891l-361.557 603.605c-9.088 14.976-20.608 27.349-33.835 37.035-13.696 10.069-29.141 17.152-45.312 21.12s-33.152 4.779-49.92 2.219c-16.213-2.475-32.128-8.149-46.891-17.109-18.304-11.093-33.067-26.24-43.179-43.264zM469.333 576v-170.667c0-23.552 19.115-42.667 42.667-42.667s42.667 19.115 42.667 42.667v170.667c0 23.552-19.115 42.667-42.667 42.667s-42.667-19.115-42.667-42.667zM554.667 234.667c0 23.552-19.115 42.667-42.667 42.667s-42.667-19.115-42.667-42.667 19.115-42.667 42.667-42.667 42.667 19.115 42.667 42.667z" />
<glyph unicode="&#xe906;" glyph-name="align-center" d="M768 576h-512c-23.552 0-42.667-19.115-42.667-42.667s19.115-42.667 42.667-42.667h512c23.552 0 42.667 19.115 42.667 42.667s-19.115 42.667-42.667 42.667zM896 746.667h-768c-23.552 0-42.667-19.115-42.667-42.667s19.115-42.667 42.667-42.667h768c23.552 0 42.667 19.115 42.667 42.667s-19.115 42.667-42.667 42.667zM896 405.333h-768c-23.552 0-42.667-19.115-42.667-42.667s19.115-42.667 42.667-42.667h768c23.552 0 42.667 19.115 42.667 42.667s-19.115 42.667-42.667 42.667zM768 234.667h-512c-23.552 0-42.667-19.115-42.667-42.667s19.115-42.667 42.667-42.667h512c23.552 0 42.667 19.115 42.667 42.667s-19.115 42.667-42.667 42.667z" />
<glyph unicode="&#xe907;" glyph-name="align-justify" d="M896 576h-768c-23.552 0-42.667-19.115-42.667-42.667s19.115-42.667 42.667-42.667h768c23.552 0 42.667 19.115 42.667 42.667s-19.115 42.667-42.667 42.667zM896 746.667h-768c-23.552 0-42.667-19.115-42.667-42.667s19.115-42.667 42.667-42.667h768c23.552 0 42.667 19.115 42.667 42.667s-19.115 42.667-42.667 42.667zM896 405.333h-768c-23.552 0-42.667-19.115-42.667-42.667s19.115-42.667 42.667-42.667h768c23.552 0 42.667 19.115 42.667 42.667s-19.115 42.667-42.667 42.667zM896 234.667h-768c-23.552 0-42.667-19.115-42.667-42.667s19.115-42.667 42.667-42.667h768c23.552 0 42.667 19.115 42.667 42.667s-19.115 42.667-42.667 42.667z" />
<glyph unicode="&#xe908;" glyph-name="align-left" d="M725.333 576h-597.333c-23.552 0-42.667-19.115-42.667-42.667s19.115-42.667 42.667-42.667h597.333c23.552 0 42.667 19.115 42.667 42.667s-19.115 42.667-42.667 42.667zM896 746.667h-768c-23.552 0-42.667-19.115-42.667-42.667s19.115-42.667 42.667-42.667h768c23.552 0 42.667 19.115 42.667 42.667s-19.115 42.667-42.667 42.667zM896 405.333h-768c-23.552 0-42.667-19.115-42.667-42.667s19.115-42.667 42.667-42.667h768c23.552 0 42.667 19.115 42.667 42.667s-19.115 42.667-42.667 42.667zM725.333 234.667h-597.333c-23.552 0-42.667-19.115-42.667-42.667s19.115-42.667 42.667-42.667h597.333c23.552 0 42.667 19.115 42.667 42.667s-19.115 42.667-42.667 42.667z" />
<glyph unicode="&#xe909;" glyph-name="align-right" d="M896 576h-597.333c-23.552 0-42.667-19.115-42.667-42.667s19.115-42.667 42.667-42.667h597.333c23.552 0 42.667 19.115 42.667 42.667s-19.115 42.667-42.667 42.667zM896 746.667h-768c-23.552 0-42.667-19.115-42.667-42.667s19.115-42.667 42.667-42.667h768c23.552 0 42.667 19.115 42.667 42.667s-19.115 42.667-42.667 42.667zM896 405.333h-768c-23.552 0-42.667-19.115-42.667-42.667s19.115-42.667 42.667-42.667h768c23.552 0 42.667 19.115 42.667 42.667s-19.115 42.667-42.667 42.667zM896 234.667h-597.333c-23.552 0-42.667-19.115-42.667-42.667s19.115-42.667 42.667-42.667h597.333c23.552 0 42.667 19.115 42.667 42.667s-19.115 42.667-42.667 42.667z" />
<glyph unicode="&#xe90a;" glyph-name="anchor" d="M597.333 746.667c0-11.648-2.304-22.613-6.443-32.64-4.309-10.411-10.667-19.797-18.56-27.733s-17.323-14.251-27.733-18.56c-9.984-4.096-20.949-6.4-32.597-6.4s-22.613 2.304-32.64 6.443c-10.411 4.309-19.797 10.667-27.733 18.56s-14.251 17.323-18.56 27.733c-4.096 9.984-6.4 20.949-6.4 32.597s2.304 22.613 6.443 32.64c4.309 10.411 10.667 19.797 18.56 27.733s17.323 14.251 27.733 18.56c9.984 4.096 20.949 6.4 32.597 6.4s22.613-2.304 32.64-6.443c10.411-4.309 19.797-10.667 27.733-18.56s14.251-17.323 18.56-27.733c4.096-9.984 6.4-20.949 6.4-32.597zM213.333 490.667h-128c-23.552 0-42.667-19.115-42.667-42.667 0-63.488 12.629-124.16 35.541-179.499 23.808-57.472 58.667-109.141 101.888-152.363s94.891-78.123 152.363-101.888c55.381-22.955 116.053-35.584 179.541-35.584s124.16 12.629 179.499 35.541c57.472 23.808 109.141 58.667 152.363 101.888s78.123 94.891 101.888 152.363c22.955 55.381 35.584 116.053 35.584 179.541 0 23.552-19.115 42.667-42.667 42.667h-128c-23.552 0-42.667-19.115-42.667-42.667s19.115-42.667 42.667-42.667h82.987c-4.053-36.565-13.184-71.509-26.709-104.192-19.456-46.976-47.957-89.259-83.413-124.672s-77.739-63.957-124.672-83.413c-32.683-13.525-67.627-22.699-104.192-26.709v515.029c7.765 2.005 15.317 4.523 22.613 7.552 20.907 8.661 39.68 21.333 55.381 37.035s28.373 34.475 37.035 55.381c8.363 20.224 12.971 42.283 12.971 65.323s-4.608 45.099-12.928 65.28c-8.661 20.907-21.333 39.68-37.035 55.381s-34.517 28.416-55.424 37.077c-20.181 8.32-42.24 12.928-65.28 12.928s-45.099-4.608-65.28-12.928c-20.907-8.661-39.68-21.333-55.381-37.035s-28.416-34.517-37.077-55.424c-8.32-20.181-12.928-42.24-12.928-65.28s4.608-45.099 12.928-65.28c8.661-20.907 21.333-39.68 37.035-55.381s34.517-28.416 55.424-37.077c7.296-3.029 14.848-5.547 22.613-7.552v-515.029c-36.565 4.053-71.509 13.184-104.192 26.709-46.976 19.456-89.259 47.957-124.672 83.413-35.456 35.456-63.957 77.739-83.413 124.672-13.525 32.683-22.699 67.627-26.709 104.192h82.987c23.552 0 42.667 19.115 42.667 42.667s-19.115 42.667-42.667 42.667z" />
<glyph unicode="&#xe90b;" glyph-name="aperture" d="M487.339 661.333l94.848 164.267c26.624-4.907 52.267-12.587 76.629-22.656 46.976-19.456 89.259-47.957 124.672-83.413 17.792-17.749 33.835-37.248 47.872-58.197h-221.611zM314.88 533.333l-94.805 164.139c6.528 7.637 13.312 14.976 20.395 22.059 35.456 35.456 77.739 63.957 124.672 83.413 37.845 15.701 78.805 25.472 121.728 28.245l-110.592-191.573zM339.541 320h-189.696c-14.123 39.979-21.845 83.072-21.845 128 0 52.096 10.368 101.675 29.056 146.859 3.243 7.808 6.741 15.488 10.453 23.040l110.933-192.171zM745.515 470.272l-61.056 105.728h189.696c14.123-39.979 21.845-83.072 21.845-128 0-52.096-10.368-101.675-29.056-146.859-3.243-7.808-6.741-15.488-10.453-23.040l-109.909 190.379zM537.088 64.811l172.032 297.856 94.805-164.181c-6.528-7.595-13.312-14.976-20.395-22.016-35.456-35.456-77.739-63.957-124.672-83.413-37.845-15.701-78.805-25.472-121.728-28.245zM456.491-18.091c1.963-0.384 3.968-0.597 5.973-0.683 16.299-1.664 32.811-2.56 49.536-2.56 63.488 0 124.16 12.629 179.499 35.541 57.472 23.808 109.141 58.667 152.363 101.888 15.616 15.616 30.123 32.299 43.435 50.005 1.749 1.963 3.328 4.096 4.693 6.357 21.504 29.568 39.595 61.781 53.803 96.043 22.912 55.339 35.541 116.011 35.541 179.499s-12.629 124.16-35.541 179.499c-0.768 1.835-1.536 3.669-2.304 5.504-0.683 1.835-1.451 3.669-2.347 5.376-23.595 53.12-56.747 100.992-97.237 141.483-43.221 43.221-94.891 78.123-152.363 101.888-38.997 16.171-80.597 27.179-123.989 32.299-1.963 0.384-3.968 0.597-5.973 0.683-16.299 1.707-32.853 2.603-49.579 2.603-63.488 0-124.16-12.629-179.499-35.541-57.472-23.808-109.141-58.667-152.363-101.931-15.616-15.616-30.123-32.299-43.435-49.963-1.749-2.005-3.328-4.096-4.693-6.357-21.461-29.568-39.595-61.781-53.803-96.043-22.912-55.339-35.541-116.011-35.541-179.499s12.629-124.16 35.541-179.499c0.768-1.835 1.536-3.669 2.304-5.504 0.683-1.835 1.451-3.669 2.347-5.376 23.595-53.12 56.747-100.992 97.237-141.483 43.221-43.221 94.891-78.123 152.363-101.888 38.997-16.128 80.597-27.179 123.989-32.299zM536.661 234.667l-94.848-164.267c-26.624 4.907-52.267 12.587-76.629 22.656-46.976 19.456-89.259 47.957-124.672 83.413-17.792 17.749-33.835 37.248-47.872 58.197h221.611zM659.84 448l-73.899-128h-147.883l-73.899 128 73.899 128h147.883z" />
<glyph unicode="&#xe90c;" glyph-name="archive" d="M170.667 576h682.667v-469.333h-682.667zM42.667 874.667c-23.552 0-42.667-19.115-42.667-42.667v-213.333c0-23.552 19.115-42.667 42.667-42.667h42.667v-512c0-23.552 19.115-42.667 42.667-42.667h768c23.552 0 42.667 19.115 42.667 42.667v512h42.667c23.552 0 42.667 19.115 42.667 42.667v213.333c0 23.552-19.115 42.667-42.667 42.667zM85.333 789.333h853.333v-128h-853.333zM426.667 405.333h170.667c23.552 0 42.667 19.115 42.667 42.667s-19.115 42.667-42.667 42.667h-170.667c-23.552 0-42.667-19.115-42.667-42.667s19.115-42.667 42.667-42.667z" />
<glyph unicode="&#xe90d;" glyph-name="arrow-down-circle" d="M981.333 448c0 63.488-12.629 124.16-35.541 179.499-23.808 57.472-58.667 109.141-101.888 152.363s-94.891 78.123-152.363 101.888c-55.381 22.955-116.053 35.584-179.541 35.584s-124.16-12.629-179.499-35.541c-57.472-23.808-109.141-58.667-152.363-101.931s-78.123-94.891-101.931-152.363c-22.912-55.339-35.541-116.011-35.541-179.499s12.629-124.16 35.541-179.499c23.808-57.472 58.667-109.141 101.888-152.363s94.891-78.123 152.363-101.888c55.381-22.955 116.053-35.584 179.541-35.584s124.16 12.629 179.499 35.541c57.472 23.808 109.141 58.667 152.363 101.888s78.123 94.891 101.888 152.363c22.955 55.381 35.584 116.053 35.584 179.541zM896 448c0-52.096-10.368-101.675-29.056-146.859-19.456-46.976-47.957-89.259-83.413-124.672s-77.739-63.957-124.672-83.413c-45.184-18.688-94.763-29.056-146.859-29.056s-101.675 10.368-146.859 29.056c-46.976 19.456-89.259 47.957-124.672 83.413-35.456 35.456-63.957 77.739-83.413 124.672-18.688 45.184-29.056 94.763-29.056 146.859s10.368 101.675 29.056 146.859c19.456 46.976 47.957 89.259 83.413 124.672s77.739 63.957 124.672 83.413c45.184 18.688 94.763 29.056 146.859 29.056s101.675-10.368 146.859-29.056c46.976-19.456 89.259-47.957 124.672-83.413 35.456-35.456 63.957-77.739 83.413-124.672 18.688-45.184 29.056-94.763 29.056-146.859zM469.333 618.667v-238.336l-97.835 97.835c-16.683 16.683-43.691 16.683-60.331 0s-16.683-43.691 0-60.331l170.667-170.667c4.096-4.096 8.832-7.168 13.867-9.259 5.12-2.091 10.539-3.2 15.957-3.243 0.213 0 0.469 0 0.683 0 5.419 0.043 10.88 1.109 15.957 3.243 5.035 2.091 9.771 5.163 13.867 9.259l170.667 170.667c16.683 16.683 16.683 43.691 0 60.331s-43.691 16.683-60.331 0l-97.835-97.835v238.336c0 23.552-19.115 42.667-42.667 42.667s-42.667-19.115-42.667-42.667z" />
<glyph unicode="&#xe90e;" glyph-name="arrow-down-left1" d="M725.333 277.333h-323.669l353.835 353.835c16.683 16.683 16.683 43.691 0 60.331s-43.691 16.683-60.331 0l-353.835-353.835v323.669c0 23.552-19.115 42.667-42.667 42.667s-42.667-19.115-42.667-42.667v-426.667c0-0.128 0-0.256 0-0.384 0.043-5.632 1.195-11.008 3.243-15.915 4.309-10.453 12.672-18.816 23.168-23.168 4.864-2.005 10.283-3.157 15.915-3.2 0.128 0 0.213 0 0.341 0h426.667c23.552 0 42.667 19.115 42.667 42.667s-19.115 42.667-42.667 42.667z" />
<glyph unicode="&#xe90f;" glyph-name="arrow-down-right1" d="M682.667 661.333v-323.669l-353.835 353.835c-16.683 16.683-43.691 16.683-60.331 0s-16.683-43.691 0-60.331l353.835-353.835h-323.669c-23.552 0-42.667-19.115-42.667-42.667s19.115-42.667 42.667-42.667h426.667c5.76 0 11.264 1.152 16.299 3.2 10.453 4.309 18.816 12.715 23.168 23.168 2.048 4.907 3.157 10.283 3.2 15.957 0 0.128 0 0.213 0 0.341v426.667c0 23.552-19.115 42.667-42.667 42.667s-42.667-19.115-42.667-42.667z" />
<glyph unicode="&#xe910;" glyph-name="arrow-down1" d="M780.501 478.165l-225.835-225.835v494.336c0 23.552-19.115 42.667-42.667 42.667s-42.667-19.115-42.667-42.667v-494.336l-225.835 225.835c-16.683 16.683-43.691 16.683-60.331 0s-16.683-43.691 0-60.331l298.667-298.667c4.096-4.096 8.832-7.168 13.867-9.259 5.12-2.091 10.539-3.2 15.957-3.243 5.675-0.043 11.349 1.024 16.64 3.243 5.035 2.091 9.771 5.163 13.867 9.259l298.667 298.667c16.683 16.683 16.683 43.691 0 60.331s-43.691 16.683-60.331 0z" />
<glyph unicode="&#xe911;" glyph-name="arrow-left-circle" d="M981.333 448c0 63.488-12.629 124.16-35.541 179.499-23.808 57.472-58.667 109.141-101.888 152.363s-94.891 78.123-152.363 101.888c-55.381 22.955-116.053 35.584-179.541 35.584s-124.16-12.629-179.499-35.541c-57.472-23.808-109.141-58.667-152.363-101.931s-78.123-94.891-101.931-152.363c-22.912-55.339-35.541-116.011-35.541-179.499s12.629-124.16 35.541-179.499c23.808-57.472 58.667-109.141 101.888-152.363s94.891-78.123 152.363-101.888c55.381-22.955 116.053-35.584 179.541-35.584s124.16 12.629 179.499 35.541c57.472 23.808 109.141 58.667 152.363 101.888s78.123 94.891 101.888 152.363c22.955 55.381 35.584 116.053 35.584 179.541zM896 448c0-52.096-10.368-101.675-29.056-146.859-19.456-46.976-47.957-89.259-83.413-124.672s-77.739-63.957-124.672-83.413c-45.184-18.688-94.763-29.056-146.859-29.056s-101.675 10.368-146.859 29.056c-46.976 19.456-89.259 47.957-124.672 83.413-35.456 35.456-63.957 77.739-83.413 124.672-18.688 45.184-29.056 94.763-29.056 146.859s10.368 101.675 29.056 146.859c19.456 46.976 47.957 89.259 83.413 124.672s77.739 63.957 124.672 83.413c45.184 18.688 94.763 29.056 146.859 29.056s101.675-10.368 146.859-29.056c46.976-19.456 89.259-47.957 124.672-83.413 35.456-35.456 63.957-77.739 83.413-124.672 18.688-45.184 29.056-94.763 29.056-146.859zM682.667 490.667h-238.336l97.835 97.835c16.683 16.683 16.683 43.691 0 60.331s-43.691 16.683-60.331 0l-170.667-170.667c-0.085-0.085-0.128-0.128-0.213-0.213-3.968-4.053-6.997-8.661-9.045-13.611-4.309-10.453-4.309-22.229 0-32.683 2.048-4.949 5.077-9.557 9.045-13.611 0.085-0.085 0.128-0.128 0.213-0.213l170.667-170.667c16.683-16.683 43.691-16.683 60.331 0s16.683 43.691 0 60.331l-97.835 97.835h238.336c23.552 0 42.667 19.115 42.667 42.667s-19.115 42.667-42.667 42.667z" />
<glyph unicode="&#xe912;" glyph-name="arrow-left1" d="M542.165 179.499l-225.835 225.835h494.336c23.552 0 42.667 19.115 42.667 42.667s-19.115 42.667-42.667 42.667h-494.336l225.835 225.835c16.683 16.683 16.683 43.691 0 60.331s-43.691 16.683-60.331 0l-298.667-298.667c-4.096-4.096-7.168-8.789-9.259-13.824-4.309-10.453-4.309-22.272 0-32.725 2.048-4.949 5.077-9.557 9.045-13.611 0.085-0.085 0.128-0.128 0.213-0.213l298.667-298.667c16.683-16.683 43.691-16.683 60.331 0s16.683 43.691 0 60.331z" />
<glyph unicode="&#xe913;" glyph-name="arrow-right-circle" d="M981.333 448c0 63.488-12.629 124.16-35.541 179.499-23.808 57.472-58.667 109.141-101.888 152.363s-94.891 78.123-152.363 101.888c-55.381 22.955-116.053 35.584-179.541 35.584s-124.16-12.629-179.499-35.541c-57.472-23.808-109.141-58.667-152.363-101.931s-78.123-94.891-101.931-152.363c-22.912-55.339-35.541-116.011-35.541-179.499s12.629-124.16 35.541-179.499c23.808-57.472 58.667-109.141 101.888-152.363s94.891-78.123 152.363-101.888c55.381-22.955 116.053-35.584 179.541-35.584s124.16 12.629 179.499 35.541c57.472 23.808 109.141 58.667 152.363 101.888s78.123 94.891 101.888 152.363c22.955 55.381 35.584 116.053 35.584 179.541zM896 448c0-52.096-10.368-101.675-29.056-146.859-19.456-46.976-47.957-89.259-83.413-124.672s-77.739-63.957-124.672-83.413c-45.184-18.688-94.763-29.056-146.859-29.056s-101.675 10.368-146.859 29.056c-46.976 19.456-89.259 47.957-124.672 83.413-35.456 35.456-63.957 77.739-83.413 124.672-18.688 45.184-29.056 94.763-29.056 146.859s10.368 101.675 29.056 146.859c19.456 46.976 47.957 89.259 83.413 124.672s77.739 63.957 124.672 83.413c45.184 18.688 94.763 29.056 146.859 29.056s101.675-10.368 146.859-29.056c46.976-19.456 89.259-47.957 124.672-83.413 35.456-35.456 63.957-77.739 83.413-124.672 18.688-45.184 29.056-94.763 29.056-146.859zM341.333 405.333h238.336l-97.835-97.835c-16.683-16.683-16.683-43.691 0-60.331s43.691-16.683 60.331 0l170.667 170.667c4.096 4.096 7.168 8.832 9.259 13.867 2.091 5.12 3.2 10.539 3.243 15.957 0 0.213 0 0.469 0 0.683-0.043 5.419-1.109 10.88-3.243 15.957-2.091 5.035-5.163 9.771-9.259 13.867l-170.667 170.667c-16.683 16.683-43.691 16.683-60.331 0s-16.683-43.691 0-60.331l97.835-97.835h-238.336c-23.552 0-42.667-19.115-42.667-42.667s19.115-42.667 42.667-42.667z" />
<glyph unicode="&#xe914;" glyph-name="arrow-right1" d="M481.835 716.501l225.835-225.835h-494.336c-23.552 0-42.667-19.115-42.667-42.667s19.115-42.667 42.667-42.667h494.336l-225.835-225.835c-16.683-16.683-16.683-43.691 0-60.331s43.691-16.683 60.331 0l298.667 298.667c4.096 4.096 7.168 8.832 9.259 13.867 2.091 5.12 3.2 10.539 3.243 15.957 0.043 5.675-1.024 11.349-3.243 16.64-2.091 5.035-5.163 9.771-9.259 13.867l-298.667 298.667c-16.683 16.683-43.691 16.683-60.331 0s-16.683-43.691 0-60.331z" />
<glyph unicode="&#xe915;" glyph-name="arrow-up-circle" d="M981.333 448c0 63.488-12.629 124.16-35.541 179.499-23.808 57.472-58.667 109.141-101.888 152.363s-94.891 78.123-152.363 101.888c-55.381 22.955-116.053 35.584-179.541 35.584s-124.16-12.629-179.499-35.541c-57.472-23.808-109.141-58.667-152.363-101.931s-78.123-94.891-101.931-152.363c-22.912-55.339-35.541-116.011-35.541-179.499s12.629-124.16 35.541-179.499c23.808-57.472 58.667-109.141 101.888-152.363s94.891-78.123 152.363-101.888c55.381-22.955 116.053-35.584 179.541-35.584s124.16 12.629 179.499 35.541c57.472 23.808 109.141 58.667 152.363 101.888s78.123 94.891 101.888 152.363c22.955 55.381 35.584 116.053 35.584 179.541zM896 448c0-52.096-10.368-101.675-29.056-146.859-19.456-46.976-47.957-89.259-83.413-124.672s-77.739-63.957-124.672-83.413c-45.184-18.688-94.763-29.056-146.859-29.056s-101.675 10.368-146.859 29.056c-46.976 19.456-89.259 47.957-124.672 83.413-35.456 35.456-63.957 77.739-83.413 124.672-18.688 45.184-29.056 94.763-29.056 146.859s10.368 101.675 29.056 146.859c19.456 46.976 47.957 89.259 83.413 124.672s77.739 63.957 124.672 83.413c45.184 18.688 94.763 29.056 146.859 29.056s101.675-10.368 146.859-29.056c46.976-19.456 89.259-47.957 124.672-83.413 35.456-35.456 63.957-77.739 83.413-124.672 18.688-45.184 29.056-94.763 29.056-146.859zM554.667 277.333v238.336l97.835-97.835c16.683-16.683 43.691-16.683 60.331 0s16.683 43.691 0 60.331l-170.667 170.667c-0.085 0.085-0.128 0.128-0.213 0.213-4.053 3.968-8.661 6.997-13.611 9.045-10.453 4.309-22.229 4.309-32.683 0-4.949-2.048-9.557-5.077-13.611-9.045-0.085-0.085-0.128-0.128-0.213-0.213l-170.667-170.667c-16.683-16.683-16.683-43.691 0-60.331s43.691-16.683 60.331 0l97.835 97.835v-238.336c0-23.552 19.115-42.667 42.667-42.667s42.667 19.115 42.667 42.667z" />
<glyph unicode="&#xe916;" glyph-name="arrow-up-left1" d="M341.333 234.667v323.669l353.835-353.835c16.683-16.683 43.691-16.683 60.331 0s16.683 43.691 0 60.331l-353.835 353.835h323.669c23.552 0 42.667 19.115 42.667 42.667s-19.115 42.667-42.667 42.667h-426.667c-5.803 0-11.307-1.152-16.341-3.243-5.12-2.133-9.771-5.248-13.653-9.088-4.011-3.968-7.253-8.704-9.429-13.995-2.091-5.035-3.243-10.539-3.243-16.341v-426.667c0-23.552 19.115-42.667 42.667-42.667s42.667 19.115 42.667 42.667z" />
<glyph unicode="&#xe917;" glyph-name="arrow-up-right1" d="M298.667 618.667h323.669l-353.835-353.835c-16.683-16.683-16.683-43.691 0-60.331s43.691-16.683 60.331 0l353.835 353.835v-323.669c0-23.552 19.115-42.667 42.667-42.667s42.667 19.115 42.667 42.667v426.667c0 5.76-1.152 11.264-3.2 16.299-4.309 10.453-12.672 18.816-23.168 23.168-4.907 2.005-10.283 3.157-15.915 3.2-0.128 0-0.256 0-0.384 0h-426.667c-23.552 0-42.667-19.115-42.667-42.667s19.115-42.667 42.667-42.667z" />
<glyph unicode="&#xe918;" glyph-name="arrow-up1" d="M243.499 417.835l225.835 225.835v-494.336c0-23.552 19.115-42.667 42.667-42.667s42.667 19.115 42.667 42.667v494.336l225.835-225.835c16.683-16.683 43.691-16.683 60.331 0s16.683 43.691 0 60.331l-298.667 298.667c-0.085 0.085-0.128 0.128-0.213 0.213-4.053 3.968-8.661 6.997-13.611 9.045-10.453 4.309-22.272 4.309-32.725 0-5.035-2.091-9.728-5.163-13.824-9.259l-298.667-298.667c-16.683-16.683-16.683-43.691 0-60.331s43.691-16.683 60.331 0z" />
<glyph unicode="&#xe919;" glyph-name="at-sign" d="M640 448c0-17.408-3.456-33.92-9.685-48.939-6.485-15.616-16-29.739-27.819-41.557s-25.941-21.333-41.557-27.819c-15.019-6.229-31.531-9.685-48.939-9.685s-33.92 3.456-48.939 9.685c-15.616 6.485-29.739 16-41.557 27.819s-21.333 25.941-27.819 41.557c-6.229 15.019-9.685 31.531-9.685 48.939s3.456 33.92 9.685 48.939c6.485 15.616 16 29.739 27.819 41.557s25.941 21.333 41.557 27.819c15.019 6.229 31.531 9.685 48.939 9.685s33.92-3.456 48.939-9.685c15.616-6.485 29.739-16 41.557-27.819s21.333-25.941 27.819-41.557c6.229-15.019 9.685-31.531 9.685-48.939zM671.573 306.432c5.547-7.765 11.691-15.061 18.389-21.76 15.701-15.701 34.475-28.373 55.381-37.035 20.224-8.363 42.283-12.971 65.323-12.971s45.099 4.608 65.28 12.928c20.907 8.661 39.68 21.333 55.381 37.035s28.373 34.475 37.035 55.381c8.363 20.224 12.971 42.283 12.971 65.323v42.667c0 63.488-12.629 124.16-35.584 179.499-23.808 57.472-58.667 109.141-101.931 152.363s-94.933 78.080-152.363 101.888c-55.339 22.912-116.011 35.541-179.499 35.541s-124.117-12.629-179.499-35.541c-57.429-23.808-109.099-58.667-152.363-101.931s-78.080-94.933-101.888-152.363c-22.912-55.381-35.541-116.011-35.541-179.499s12.629-124.16 35.584-179.499c23.808-57.472 58.667-109.141 101.931-152.363s94.933-78.080 152.363-101.888c55.339-22.912 116.011-35.541 179.499-35.541 53.12 0 104.235 8.832 151.851 25.088 48.853 16.683 93.952 41.088 133.632 71.723 18.645 14.379 22.101 41.173 7.723 59.861s-41.173 22.101-59.861 7.723c-32.299-24.96-69.12-44.885-109.013-58.496-38.869-13.269-80.683-20.523-124.288-20.523-52.096 0-101.675 10.325-146.859 29.056-46.976 19.456-89.259 47.957-124.715 83.413s-63.957 77.739-83.413 124.672c-18.731 45.099-29.099 94.677-29.099 146.773s10.325 101.632 29.056 146.816c19.456 46.976 47.957 89.259 83.413 124.715s77.739 63.957 124.672 83.413c45.184 18.731 94.763 29.056 146.816 29.056s101.675-10.325 146.859-29.056c46.976-19.456 89.259-47.957 124.715-83.413 35.456-35.413 63.957-77.739 83.413-124.672 18.688-45.141 29.056-94.72 29.056-146.816v-42.667c0-11.648-2.304-22.613-6.443-32.64-4.309-10.411-10.667-19.797-18.56-27.733-7.893-7.893-17.323-14.251-27.733-18.56-9.984-4.096-20.949-6.4-32.597-6.4s-22.613 2.304-32.64 6.443c-10.411 4.309-19.797 10.667-27.733 18.56-7.893 7.893-14.251 17.323-18.56 27.733-4.096 9.984-6.4 20.949-6.4 32.597v213.333c0 23.552-19.115 42.667-42.667 42.667s-42.667-19.115-42.667-42.667c-14.165 10.667-29.739 19.584-46.421 26.496-25.173 10.453-52.779 16.171-81.579 16.171s-56.405-5.717-81.579-16.171c-26.155-10.837-49.621-26.667-69.291-46.293s-35.499-43.136-46.293-69.248c-10.453-25.216-16.171-52.821-16.171-81.621s5.717-56.405 16.171-81.579c10.837-26.155 26.667-49.621 46.293-69.248s43.136-35.499 69.248-46.293c25.216-10.496 52.821-16.213 81.621-16.213s56.405 5.717 81.579 16.171c26.155 10.837 49.621 26.667 69.248 46.293 2.987 2.987 5.931 6.101 8.747 9.259z" />
<glyph unicode="&#xe91a;" glyph-name="award" d="M639.403 301.909l32-241.152-137.429 82.475c-13.269 7.851-29.995 8.363-43.904 0l-137.429-82.475 32.043 241.109c39.381-15.829 82.389-24.533 127.317-24.533 44.971 0 87.979 8.704 127.403 24.576zM654.123 405.717c-2.475-1.28-4.779-2.773-6.912-4.48-11.819-7.381-24.32-13.824-37.333-19.2-30.080-12.459-63.104-19.371-97.877-19.371s-67.797 6.912-97.877 19.371c-31.275 12.971-59.477 31.957-83.115 55.595s-42.667 51.84-55.595 83.115c-12.501 30.123-19.413 63.147-19.413 97.92s6.912 67.797 19.371 97.877c12.971 31.275 31.957 59.477 55.595 83.115s51.84 42.667 83.115 55.595c30.123 12.501 63.147 19.413 97.92 19.413s67.797-6.912 97.877-19.371c31.275-12.971 59.477-31.957 83.115-55.595s42.667-51.84 55.595-83.115c12.501-30.123 19.413-63.147 19.413-97.92s-6.912-67.797-19.371-97.877c-12.971-31.275-31.957-59.477-55.595-83.115-11.861-11.861-24.875-22.571-38.869-31.915zM304.64 347.52l-48.256-363.221c-3.115-23.339 13.312-44.8 36.693-47.915 9.984-1.323 19.669 0.939 27.563 5.717l191.36 114.816 191.403-114.816c20.224-12.117 46.421-5.589 58.539 14.635 5.205 8.661 6.955 18.389 5.717 27.563l-48.213 363.307c11.947 9.173 23.296 19.115 33.92 29.739 31.445 31.445 56.789 69.035 74.112 110.805 16.683 40.235 25.856 84.352 25.856 130.517s-9.173 90.283-25.856 130.56c-17.323 41.813-42.667 79.36-74.112 110.805s-69.035 56.789-110.805 74.112c-40.277 16.683-84.395 25.856-130.56 25.856s-90.283-9.173-130.56-25.856c-41.813-17.323-79.36-42.667-110.805-74.112s-56.789-69.035-74.112-110.805c-16.683-40.277-25.856-84.395-25.856-130.56s9.173-90.283 25.856-130.56c17.323-41.813 42.667-79.36 74.112-110.805 10.667-10.667 22.016-20.608 33.963-29.781z" />
<glyph unicode="&#xe91b;" glyph-name="bar-chart-2" d="M810.667 106.667v426.667c0 23.552-19.115 42.667-42.667 42.667s-42.667-19.115-42.667-42.667v-426.667c0-23.552 19.115-42.667 42.667-42.667s42.667 19.115 42.667 42.667zM554.667 106.667v682.667c0 23.552-19.115 42.667-42.667 42.667s-42.667-19.115-42.667-42.667v-682.667c0-23.552 19.115-42.667 42.667-42.667s42.667 19.115 42.667 42.667zM298.667 106.667v256c0 23.552-19.115 42.667-42.667 42.667s-42.667-19.115-42.667-42.667v-256c0-23.552 19.115-42.667 42.667-42.667s42.667 19.115 42.667 42.667z" />
<glyph unicode="&#xe91c;" glyph-name="bar-chart" d="M554.667 106.667v426.667c0 23.552-19.115 42.667-42.667 42.667s-42.667-19.115-42.667-42.667v-426.667c0-23.552 19.115-42.667 42.667-42.667s42.667 19.115 42.667 42.667zM810.667 106.667v682.667c0 23.552-19.115 42.667-42.667 42.667s-42.667-19.115-42.667-42.667v-682.667c0-23.552 19.115-42.667 42.667-42.667s42.667 19.115 42.667 42.667zM298.667 106.667v170.667c0 23.552-19.115 42.667-42.667 42.667s-42.667-19.115-42.667-42.667v-170.667c0-23.552 19.115-42.667 42.667-42.667s42.667 19.115 42.667 42.667z" />
<glyph unicode="&#xe91d;" glyph-name="battery-charging" d="M213.333 234.667h-85.333c-5.845 0-11.349 1.152-16.299 3.2-5.205 2.133-9.899 5.333-13.867 9.301s-7.125 8.661-9.301 13.867c-2.048 4.949-3.2 10.453-3.2 16.299v341.333c0 5.845 1.152 11.349 3.2 16.299 2.133 5.205 5.333 9.899 9.301 13.867s8.661 7.125 13.867 9.301c4.949 2.048 10.453 3.2 16.299 3.2h136.107c23.552 0 42.667 19.115 42.667 42.667s-19.115 42.667-42.667 42.667h-136.107c-17.28 0-33.835-3.456-48.981-9.728-15.659-6.485-29.739-16-41.515-27.776s-21.291-25.856-27.776-41.515c-6.272-15.147-9.728-31.701-9.728-48.981v-341.333c0-17.28 3.456-33.835 9.728-48.981 6.485-15.701 16-29.781 27.776-41.557s25.856-21.291 41.557-27.776c15.104-6.229 31.659-9.685 48.939-9.685h85.333c23.552 0 42.667 19.115 42.667 42.667s-19.115 42.667-42.667 42.667zM640 661.333h85.333c5.845 0 11.349-1.152 16.299-3.2 5.205-2.133 9.899-5.333 13.867-9.301s7.125-8.661 9.301-13.867c2.048-4.949 3.2-10.453 3.2-16.299v-341.333c0-5.845-1.152-11.349-3.2-16.299-2.133-5.205-5.333-9.899-9.301-13.867s-8.661-7.125-13.867-9.301c-4.949-2.048-10.453-3.2-16.299-3.2h-136.107c-23.552 0-42.667-19.115-42.667-42.667s19.115-42.667 42.667-42.667h136.107c17.28 0 33.835 3.456 48.981 9.728 15.701 6.485 29.781 16 41.557 27.776s21.291 25.856 27.776 41.557c6.229 15.104 9.685 31.659 9.685 48.939v341.333c0 17.28-3.456 33.835-9.728 48.981-6.485 15.701-16 29.781-27.776 41.557s-25.856 21.291-41.557 27.776c-15.104 6.229-31.659 9.685-48.939 9.685h-85.333c-23.552 0-42.667-19.115-42.667-42.667s19.115-42.667 42.667-42.667zM1024 405.333v85.333c0 23.552-19.115 42.667-42.667 42.667s-42.667-19.115-42.667-42.667v-85.333c0-23.552 19.115-42.667 42.667-42.667s42.667 19.115 42.667 42.667zM433.835 727.68l-170.667-256c-13.056-19.627-7.765-46.080 11.819-59.179 7.339-4.907 15.659-7.211 23.68-7.168h176.256l-126.464-189.653c-13.056-19.627-7.765-46.080 11.819-59.179s46.080-7.765 59.179 11.819l170.667 256c4.523 6.656 7.211 14.848 7.211 23.68 0 23.552-19.115 42.667-42.667 42.667h-176.256l126.464 189.653c13.056 19.627 7.765 46.080-11.819 59.179s-46.080 7.765-59.179-11.819z" />
<glyph unicode="&#xe91e;" glyph-name="battery" d="M128 746.667c-17.28 0-33.835-3.456-48.981-9.728-15.659-6.485-29.739-16-41.515-27.776s-21.291-25.856-27.776-41.515c-6.272-15.147-9.728-31.701-9.728-48.981v-341.333c0-17.28 3.456-33.835 9.728-48.981 6.485-15.701 16-29.781 27.776-41.557s25.856-21.291 41.557-27.776c15.104-6.229 31.659-9.685 48.939-9.685h597.333c17.28 0 33.835 3.456 48.981 9.728 15.701 6.485 29.781 16 41.557 27.776s21.291 25.856 27.776 41.557c6.229 15.104 9.685 31.659 9.685 48.939v341.333c0 17.28-3.456 33.835-9.728 48.981-6.485 15.701-16 29.781-27.776 41.557s-25.856 21.291-41.557 27.776c-15.104 6.229-31.659 9.685-48.939 9.685zM128 661.333h597.333c5.845 0 11.349-1.152 16.299-3.2 5.205-2.133 9.899-5.333 13.867-9.301s7.125-8.661 9.301-13.867c2.048-4.949 3.2-10.453 3.2-16.299v-341.333c0-5.845-1.152-11.349-3.2-16.299-2.133-5.205-5.333-9.899-9.301-13.867s-8.661-7.125-13.867-9.301c-4.949-2.048-10.453-3.2-16.299-3.2h-597.333c-5.845 0-11.349 1.152-16.299 3.2-5.205 2.133-9.899 5.333-13.867 9.301s-7.125 8.661-9.301 13.867c-2.048 4.949-3.2 10.453-3.2 16.299v341.333c0 5.845 1.152 11.349 3.2 16.299 2.133 5.205 5.333 9.899 9.301 13.867s8.661 7.125 13.867 9.301c4.949 2.048 10.453 3.2 16.299 3.2zM1024 405.333v85.333c0 23.552-19.115 42.667-42.667 42.667s-42.667-19.115-42.667-42.667v-85.333c0-23.552 19.115-42.667 42.667-42.667s42.667 19.115 42.667 42.667z" />
<glyph unicode="&#xe91f;" glyph-name="bell-off" d="M548.907 85.419c-2.944-5.077-6.699-9.216-10.965-12.501-4.48-3.413-9.557-5.888-14.976-7.339s-11.093-1.835-16.64-1.067c-5.333 0.725-10.667 2.475-15.701 5.419-6.912 4.011-12.075 9.472-15.317 15.232-11.691 20.48-37.717 27.605-58.197 15.915s-27.605-37.717-15.915-58.197c10.667-18.731 26.581-35.115 46.635-46.763 14.933-8.661 30.976-13.995 47.232-16.171 16.853-2.261 33.792-1.109 49.877 3.2s31.36 11.691 44.885 22.016c13.013 9.941 24.32 22.571 32.981 37.461 11.819 20.395 4.864 46.507-15.488 58.325s-46.507 4.864-58.325-15.488zM810.667 618.795c0.043 40.32-7.936 78.848-22.485 114.048-15.104 36.608-37.248 69.504-64.683 97.067s-60.288 49.792-96.853 64.981c-35.243 14.635-73.813 22.741-114.176 22.784-61.781 0.085-119.424-18.645-166.4-50.347-19.541-13.141-24.704-39.68-11.52-59.221s39.723-24.661 59.264-11.477c33.109 22.357 74.112 35.797 118.528 35.755 28.971-0.043 56.491-5.845 81.536-16.256 26.069-10.837 49.536-26.709 69.205-46.464s35.499-43.264 46.251-69.333c10.283-24.96 15.957-52.309 16-81.109-1.792-70.741 7.381-148.309 28.373-225.152 6.229-22.741 29.653-36.139 52.395-29.909s36.139 29.653 29.909 52.395c-18.901 69.291-26.965 138.667-25.344 200.832 0 0.043 0 0.085 0 0.128 0 0.128 0 0.256 0 0.427 0 0.213 0 0.427 0 0.64 0 0.085 0 0.128 0 0.213zM298.496 601.131l323.84-323.797h-402.645c3.797 6.187 7.552 12.8 11.349 19.84 16.555 30.976 32.597 70.187 44.885 119.211 12.715 50.645 21.376 111.531 22.571 184.789zM12.501 887.168l207.189-207.189c-4.523-21.035-6.613-41.984-6.357-61.867 0-73.941-8.277-133.632-20.181-180.992-10.624-42.368-24.149-75.008-37.333-99.669-13.397-25.003-26.539-41.984-36.224-52.651-8.96-9.899-15.061-14.464-15.744-14.933-19.2-13.184-24.32-39.381-11.349-58.837 8.192-12.288 21.589-18.944 35.499-19.029h579.669l243.499-243.499c16.683-16.683 43.691-16.683 60.331 0s16.683 43.691 0 60.331l-938.667 938.667c-16.683 16.683-43.691 16.683-60.331 0-16.64-16.64-16.683-43.648 0-60.331z" />
<glyph unicode="&#xe920;" glyph-name="bell1" d="M725.333 618.667c0-80.811 9.003-147.541 22.741-202.283 12.288-48.981 28.331-88.235 44.885-119.211 3.755-7.040 7.552-13.653 11.349-19.84h-584.619c3.797 6.187 7.552 12.8 11.349 19.84 16.555 30.976 32.597 70.187 44.885 119.211 13.739 54.741 22.741 121.472 22.741 202.283 0 28.971 5.76 56.491 16.128 81.579 10.795 26.069 26.667 49.579 46.336 69.291s43.221 35.541 69.291 46.336c25.088 10.368 52.608 16.128 81.579 16.128s56.491-5.76 81.579-16.128c26.069-10.795 49.579-26.624 69.291-46.336s35.541-43.221 46.336-69.291c10.368-25.088 16.128-52.608 16.128-81.579zM810.667 618.667c0 40.363-8.021 78.976-22.613 114.219-15.147 36.565-37.333 69.461-64.853 96.981s-60.373 49.707-96.981 64.853c-35.243 14.592-73.856 22.613-114.219 22.613s-78.976-8.021-114.219-22.613c-36.608-15.189-69.461-37.376-96.981-64.853s-49.664-60.373-64.853-96.981c-14.592-35.243-22.613-73.856-22.613-114.219 0-74.453-8.277-134.187-20.181-181.547-10.624-42.368-24.149-75.008-37.333-99.669-13.397-25.003-26.539-41.984-36.224-52.651-8.96-9.899-15.061-14.464-15.744-14.933-19.2-13.184-24.32-39.381-11.349-58.837 8.192-12.288 21.589-18.944 35.499-19.029h768c23.552 0 42.667 19.115 42.667 42.667 0 14.763-7.467 27.733-18.987 35.499 0.384-0.256-5.845 4.224-15.275 14.635-9.685 10.667-22.827 27.648-36.224 52.651-13.184 24.661-26.709 57.301-37.333 99.669-11.904 47.36-20.181 107.093-20.181 181.547zM548.907 85.419c-2.944-5.077-6.699-9.216-10.965-12.501-4.48-3.413-9.557-5.888-14.976-7.339s-11.093-1.835-16.64-1.067c-5.333 0.725-10.667 2.475-15.701 5.419-6.912 4.011-12.075 9.472-15.317 15.232-11.691 20.48-37.717 27.605-58.197 15.915s-27.605-37.717-15.915-58.197c10.667-18.731 26.581-35.115 46.635-46.763 14.933-8.661 30.976-13.995 47.232-16.171 16.853-2.261 33.792-1.109 49.877 3.2s31.36 11.691 44.885 22.016c13.013 9.941 24.32 22.571 32.981 37.461 11.819 20.395 4.864 46.507-15.488 58.325s-46.507 4.864-58.325-15.488z" />
<glyph unicode="&#xe921;" glyph-name="bluetooth" d="M554.667 550.997v263.339l131.669-131.669zM554.667 345.003l131.669-131.669-131.669-131.669zM247.168 652.501l204.501-204.501-204.501-204.501c-16.683-16.683-16.683-43.691 0-60.331s43.691-16.683 60.331 0l161.835 161.835v-366.336c0-10.923 4.181-21.845 12.501-30.165 16.683-16.683 43.691-16.683 60.331 0l234.667 234.667c16.683 16.683 16.683 43.691 0 60.331l-204.501 204.501 204.501 204.501c16.683 16.683 16.683 43.691 0 60.331l-234.667 234.667c-7.723 7.723-18.389 12.501-30.165 12.501-23.552 0-42.667-19.115-42.667-42.667v-366.336l-161.835 161.835c-16.683 16.683-43.691 16.683-60.331 0s-16.683-43.691 0-60.331z" />
<glyph unicode="&#xe922;" glyph-name="bold1" d="M298.667 490.667v256h298.667c17.408 0 33.92-3.456 48.939-9.685 15.616-6.485 29.739-16 41.557-27.819s21.333-25.941 27.819-41.557c6.229-15.019 9.685-31.531 9.685-48.939s-3.456-33.92-9.685-48.939c-6.485-15.616-16-29.739-27.819-41.557s-25.941-21.333-41.557-27.819c-15.019-6.229-31.531-9.685-48.939-9.685zM213.333 448v-341.333c0-23.552 19.115-42.667 42.667-42.667h384c28.8 0 56.405 5.717 81.579 16.171 26.155 10.837 49.621 26.667 69.248 46.293s35.499 43.136 46.293 69.248c10.496 25.216 16.213 52.821 16.213 81.621s-5.717 56.405-16.171 81.579c-10.837 26.155-26.667 49.621-46.293 69.248-13.867 13.867-29.653 25.856-46.933 35.499 1.451 1.365 2.859 2.731 4.267 4.139 19.627 19.627 35.499 43.136 46.293 69.248 10.453 25.216 16.171 52.821 16.171 81.621s-5.717 56.405-16.171 81.579c-10.837 26.155-26.667 49.621-46.293 69.248s-43.136 35.499-69.248 46.293c-25.216 10.496-52.821 16.213-81.621 16.213h-341.333c-23.552 0-42.667-19.115-42.667-42.667zM298.667 405.333h341.333c17.408 0 33.92-3.456 48.939-9.685 15.616-6.485 29.739-16 41.557-27.819s21.333-25.941 27.819-41.557c6.229-15.019 9.685-31.531 9.685-48.939s-3.456-33.92-9.685-48.939c-6.485-15.616-16-29.739-27.819-41.557s-25.941-21.333-41.557-27.819c-15.019-6.229-31.531-9.685-48.939-9.685h-341.333z" />
<glyph unicode="&#xe923;" glyph-name="book-open" d="M896 789.333v-554.667h-256c-23.040 0-45.099-4.608-65.28-12.928-6.912-2.859-13.611-6.187-20.053-9.899v449.493c0 17.408 3.456 33.92 9.685 48.939 6.485 15.616 16 29.739 27.819 41.557s25.941 21.333 41.557 27.819c15.019 6.229 31.531 9.685 48.939 9.685zM469.333 211.84c-6.443 3.712-13.141 7.040-20.053 9.899-20.181 8.32-42.24 12.928-65.28 12.928h-256v554.667h213.333c17.408 0 33.92-3.456 48.939-9.685 15.616-6.485 29.739-16 41.557-27.819s21.333-25.941 27.819-41.557c6.229-15.019 9.685-31.531 9.685-48.939zM938.667 874.667h-256c-28.8 0-56.405-5.717-81.579-16.171-26.155-10.837-49.621-26.667-69.248-46.293-7.168-7.125-13.781-14.763-19.84-22.869-6.059 8.107-12.672 15.744-19.797 22.869-19.627 19.627-43.136 35.499-69.248 46.293-25.216 10.453-52.821 16.171-81.621 16.171h-256c-23.552 0-42.667-19.115-42.667-42.667v-640c0-23.552 19.115-42.667 42.667-42.667h298.667c11.648 0 22.613-2.304 32.64-6.443 10.411-4.309 19.797-10.667 27.733-18.56 7.893-7.893 14.251-17.323 18.56-27.733 4.096-9.984 6.4-20.949 6.4-32.597 0-23.552 19.115-42.667 42.667-42.667s42.667 19.115 42.667 42.667c0 11.648 2.304 22.613 6.443 32.64 4.309 10.411 10.667 19.797 18.56 27.733 7.893 7.893 17.323 14.251 27.733 18.56 9.984 4.096 20.949 6.4 32.597 6.4h298.667c23.552 0 42.667 19.115 42.667 42.667v640c0 23.552-19.115 42.667-42.667 42.667z" />
<glyph unicode="&#xe924;" glyph-name="book1" d="M277.333 917.333c-20.139 0-39.467-4.011-57.131-11.307-18.304-7.595-34.731-18.688-48.469-32.427s-24.832-30.165-32.427-48.469c-7.296-17.664-11.307-36.992-11.307-57.131v-640c0-20.139 4.011-39.467 11.307-57.131 7.595-18.304 18.688-34.731 32.427-48.469s30.165-24.832 48.469-32.427c17.664-7.296 36.992-11.307 57.131-11.307h576c23.552 0 42.667 19.115 42.667 42.667v853.333c0 23.552-19.115 42.667-42.667 42.667zM810.667 192v-128h-533.333c-8.747 0-16.981 1.749-24.448 4.821-7.808 3.243-14.848 7.979-20.779 13.909s-10.667 13.013-13.909 20.779c-3.115 7.509-4.864 15.744-4.864 24.491s1.749 16.981 4.821 24.448c3.243 7.808 7.979 14.848 13.909 20.779s13.013 10.667 20.779 13.909c7.509 3.115 15.744 4.864 24.491 4.864zM277.333 832h533.333v-554.667h-533.333c-20.139 0-39.467-4.011-57.131-11.307-2.304-0.981-4.608-2.005-6.869-3.072v505.045c0 8.747 1.749 16.981 4.821 24.448 3.243 7.808 7.979 14.891 13.909 20.821s13.013 10.667 20.779 13.909c7.509 3.072 15.744 4.821 24.491 4.821z" />
<glyph unicode="&#xe925;" glyph-name="bookmark1" d="M785.877 29.269c6.869-4.949 15.488-7.936 24.789-7.936 23.552 0 42.667 19.115 42.667 42.667v682.667c0 17.28-3.456 33.835-9.728 48.981-6.485 15.701-16 29.781-27.776 41.557s-25.856 21.291-41.557 27.776c-15.104 6.229-31.659 9.685-48.939 9.685h-426.667c-17.28 0-33.835-3.456-48.981-9.728-15.659-6.485-29.739-16-41.515-27.776s-21.291-25.856-27.776-41.515c-6.272-15.147-9.728-31.701-9.728-48.981v-682.667c-0.043-8.491 2.56-17.237 7.936-24.789 13.696-19.157 40.363-23.637 59.52-9.899l273.877 195.584zM768 146.901l-231.211 165.163c-15.147 10.837-34.944 10.325-49.579 0l-231.211-165.163v599.765c0 5.845 1.152 11.349 3.2 16.299 2.133 5.205 5.333 9.899 9.301 13.867s8.661 7.125 13.867 9.301c4.949 2.048 10.453 3.2 16.299 3.2h426.667c5.845 0 11.349-1.152 16.299-3.2 5.205-2.133 9.899-5.333 13.867-9.301s7.125-8.661 9.301-13.867c2.048-4.949 3.2-10.453 3.2-16.299z" />
<glyph unicode="&#xe926;" glyph-name="box" d="M569.045 936.277c-8.96 4.437-18.176 7.723-27.648 9.984-14.293 3.371-29.184 4.352-44.075 2.645-14.421-1.664-28.715-5.803-42.411-12.587l-341.461-170.752c-16.469-8.32-30.891-19.968-42.325-34.133-9.045-11.136-16.256-23.851-21.12-37.675-4.779-13.44-7.339-27.776-7.339-42.667v-406.144c0-18.517 3.925-36.736 11.435-53.376 5.888-13.099 14.037-25.216 24.149-35.84 9.856-10.283 21.504-19.029 34.901-25.771l341.461-170.709c9.003-4.48 18.475-7.851 28.245-10.155 14.251-3.328 29.141-4.224 43.989-2.432 14.379 1.707 28.629 5.888 42.155 12.629l341.504 170.752c16.469 8.32 30.891 19.968 42.325 34.133 9.045 11.136 16.256 23.851 21.12 37.675 4.821 13.397 7.381 27.733 7.381 42.624v406.912c-0.128 18.432-4.181 36.565-11.733 53.12-5.973 13.056-14.165 25.131-24.363 35.669-9.899 10.197-21.632 18.901-34.816 25.472zM843.051 703.872l-331.051-165.504-331.051 165.547 312.149 156.075c4.523 2.261 9.259 3.584 13.952 4.139 4.907 0.555 9.856 0.256 14.677-0.896 3.2-0.768 6.357-1.877 9.131-3.243zM469.333 464.299v-417.024l-317.995 158.976c-4.395 2.219-8.235 5.12-11.435 8.448-3.328 3.456-6.016 7.467-8.021 11.904-2.517 5.632-3.883 11.861-3.883 18.261v390.059zM554.667 47.488v416.811l341.333 170.667v-390.485c0-5.035-0.853-9.771-2.432-14.123-1.621-4.523-3.968-8.747-7.040-12.501-3.883-4.779-8.789-8.789-14.507-11.648z" />
<glyph unicode="&#xe927;" glyph-name="briefcase1" d="M384 704v42.667c0 5.845 1.152 11.349 3.2 16.299 2.133 5.205 5.333 9.899 9.301 13.867s8.661 7.125 13.867 9.301c4.949 2.048 10.453 3.2 16.299 3.2h170.667c5.845 0 11.349-1.152 16.299-3.2 5.205-2.133 9.899-5.333 13.867-9.301s7.125-8.661 9.301-13.867c2.048-4.949 3.2-10.453 3.2-16.299v-42.667zM384 106.667v512h256v-512zM298.667 618.667v-512h-128c-5.845 0-11.349 1.152-16.299 3.2-5.205 2.133-9.899 5.333-13.867 9.301s-7.125 8.661-9.301 13.867c-2.048 4.949-3.2 10.453-3.2 16.299v426.667c0 5.845 1.152 11.349 3.2 16.299 2.133 5.205 5.333 9.899 9.301 13.867s8.661 7.125 13.867 9.301c4.949 2.048 10.453 3.2 16.299 3.2zM725.333 704v42.667c0 17.28-3.456 33.835-9.728 48.981-6.485 15.701-16 29.781-27.776 41.557s-25.856 21.291-41.557 27.776c-15.104 6.229-31.659 9.685-48.939 9.685h-170.667c-17.28 0-33.835-3.456-48.981-9.728-15.659-6.485-29.739-16-41.515-27.776s-21.291-25.856-27.776-41.515c-6.272-15.147-9.728-31.701-9.728-48.981v-42.667h-128c-17.28 0-33.835-3.456-48.981-9.728-15.659-6.485-29.739-16-41.515-27.776s-21.291-25.856-27.776-41.515c-6.272-15.147-9.728-31.701-9.728-48.981v-426.667c0-17.28 3.456-33.835 9.728-48.981 6.485-15.701 16-29.781 27.776-41.557s25.856-21.291 41.557-27.776c15.104-6.229 31.659-9.685 48.939-9.685h682.667c17.28 0 33.835 3.456 48.981 9.728 15.701 6.485 29.781 16 41.557 27.776s21.291 25.856 27.776 41.557c6.229 15.104 9.685 31.659 9.685 48.939v426.667c0 17.28-3.456 33.835-9.728 48.981-6.485 15.701-16 29.781-27.776 41.557s-25.856 21.291-41.557 27.776c-15.104 6.229-31.659 9.685-48.939 9.685zM725.333 106.667v512h128c5.845 0 11.349-1.152 16.299-3.2 5.205-2.133 9.899-5.333 13.867-9.301s7.125-8.661 9.301-13.867c2.048-4.949 3.2-10.453 3.2-16.299v-426.667c0-5.845-1.152-11.349-3.2-16.299-2.133-5.205-5.333-9.899-9.301-13.867s-8.661-7.125-13.867-9.301c-4.949-2.048-10.453-3.2-16.299-3.2z" />
<glyph unicode="&#xe928;" glyph-name="calendar1" d="M298.667 874.667v-42.667h-85.333c-17.28 0-33.835-3.456-48.981-9.728-15.659-6.485-29.739-16-41.515-27.776s-21.291-25.856-27.776-41.515c-6.272-15.147-9.728-31.701-9.728-48.981v-597.333c0-17.28 3.456-33.835 9.728-48.981 6.485-15.701 16-29.781 27.776-41.557s25.856-21.291 41.557-27.776c15.104-6.229 31.659-9.685 48.939-9.685h597.333c17.28 0 33.835 3.456 48.981 9.728 15.701 6.485 29.781 16 41.557 27.776s21.291 25.856 27.776 41.557c6.229 15.104 9.685 31.659 9.685 48.939v597.333c0 17.28-3.456 33.835-9.728 48.981-6.485 15.701-16 29.781-27.776 41.557s-25.856 21.291-41.557 27.776c-15.104 6.229-31.659 9.685-48.939 9.685h-85.333v42.667c0 23.552-19.115 42.667-42.667 42.667s-42.667-19.115-42.667-42.667v-42.667h-256v42.667c0 23.552-19.115 42.667-42.667 42.667s-42.667-19.115-42.667-42.667zM853.333 576h-682.667v128c0 5.845 1.152 11.349 3.2 16.299 2.133 5.205 5.333 9.899 9.301 13.867s8.661 7.125 13.867 9.301c4.949 2.048 10.453 3.2 16.299 3.2h85.333v-42.667c0-23.552 19.115-42.667 42.667-42.667s42.667 19.115 42.667 42.667v42.667h256v-42.667c0-23.552 19.115-42.667 42.667-42.667s42.667 19.115 42.667 42.667v42.667h85.333c5.845 0 11.349-1.152 16.299-3.2 5.205-2.133 9.899-5.333 13.867-9.301s7.125-8.661 9.301-13.867c2.048-4.949 3.2-10.453 3.2-16.299zM170.667 490.667h682.667v-384c0-5.845-1.152-11.349-3.2-16.299-2.133-5.205-5.333-9.899-9.301-13.867s-8.661-7.125-13.867-9.301c-4.949-2.048-10.453-3.2-16.299-3.2h-597.333c-5.845 0-11.349 1.152-16.299 3.2-5.205 2.133-9.899 5.333-13.867 9.301s-7.125 8.661-9.301 13.867c-2.048 4.949-3.2 10.453-3.2 16.299z" />
<glyph unicode="&#xe929;" glyph-name="camera-off" d="M384 789.333h233.173l72.661-109.013c8.192-12.245 21.589-18.901 35.499-18.987h170.667c5.845 0 11.349-1.152 16.299-3.2 5.205-2.133 9.899-5.333 13.867-9.301s7.125-8.661 9.301-13.867c2.048-4.949 3.2-10.453 3.2-16.299v-398.507c0-23.552 19.115-42.667 42.667-42.667s42.667 19.115 42.667 42.667v398.507c0 17.28-3.456 33.835-9.728 48.981-6.485 15.701-16 29.781-27.776 41.557s-25.856 21.291-41.557 27.776c-15.104 6.229-31.659 9.685-48.939 9.685h-147.84l-72.661 109.013c-7.765 11.52-20.736 18.987-35.499 18.987h-256c-23.552 0-42.667-19.115-42.667-42.667s19.115-42.667 42.667-42.667zM352.512 547.157c-6.229-6.955-12.075-14.379-17.451-22.272-16.256-23.765-27.136-49.792-32.725-76.459-5.845-27.691-6.016-56.021-0.896-83.328s15.531-53.632 31.019-77.312c14.891-22.827 34.432-43.136 58.197-59.435 23.765-16.256 49.792-27.136 76.459-32.725 27.691-5.845 56.021-6.016 83.328-0.896s53.632 15.531 77.312 31.019c9.131 5.973 17.877 12.672 26.112 20.096l139.136-139.179h-665.003c-5.845 0-11.349 1.152-16.299 3.2-5.205 2.133-9.899 5.333-13.867 9.301s-7.125 8.661-9.301 13.867c-2.048 4.949-3.2 10.453-3.2 16.299v469.333c0 5.845 1.152 11.349 3.2 16.299 2.133 5.205 5.333 9.899 9.301 13.867s8.661 7.125 13.867 9.301c4.949 2.048 10.453 3.2 16.299 3.2h110.336zM444.288 576.085l-371.456 371.413c-16.683 16.683-43.691 16.683-60.331 0-16.64-16.64-16.683-43.648 0-60.331l140.501-140.501h-25.003c-17.28 0-33.835-3.456-48.981-9.728-15.659-6.485-29.739-16-41.515-27.776s-21.291-25.856-27.776-41.515c-6.272-15.147-9.728-31.701-9.728-48.981v-469.333c0-17.28 3.456-33.835 9.728-48.981 6.485-15.701 16-29.781 27.776-41.557s25.856-21.291 41.557-27.776c15.104-6.229 31.659-9.685 48.939-9.685h750.336l72.832-72.832c16.683-16.683 43.691-16.683 60.331 0s16.683 43.691 0 60.331l-566.059 566.059zM593.365 306.304c-3.925-3.285-8.021-6.315-12.245-9.088-14.165-9.259-29.995-15.531-46.421-18.603s-33.451-2.944-50.005 0.512c-15.915 3.328-31.488 9.813-45.867 19.669s-26.027 22.016-34.944 35.627c-9.216 14.165-15.531 29.995-18.603 46.421s-2.944 33.451 0.512 50.005c3.328 15.915 9.813 31.488 19.669 45.867 2.389 3.499 4.907 6.827 7.509 9.941z" />
<glyph unicode="&#xe92a;" glyph-name="camera1" d="M1024 149.333v469.333c0 17.28-3.456 33.835-9.728 48.981-6.485 15.701-16 29.781-27.776 41.557s-25.856 21.291-41.557 27.776c-15.104 6.229-31.659 9.685-48.939 9.685h-147.84l-72.661 109.013c-7.765 11.52-20.736 18.987-35.499 18.987h-256c-13.909-0.085-27.307-6.741-35.499-18.987l-72.661-109.013h-147.84c-17.28 0-33.835-3.456-48.981-9.728-15.659-6.485-29.739-16-41.515-27.776s-21.291-25.856-27.776-41.515c-6.272-15.147-9.728-31.701-9.728-48.981v-469.333c0-17.28 3.456-33.835 9.728-48.981 6.485-15.701 16-29.781 27.776-41.557s25.856-21.291 41.557-27.776c15.104-6.229 31.659-9.685 48.939-9.685h768c17.28 0 33.835 3.456 48.981 9.728 15.701 6.485 29.781 16 41.557 27.776s21.291 25.856 27.776 41.557c6.229 15.104 9.685 31.659 9.685 48.939zM938.667 149.333c0-5.845-1.152-11.349-3.2-16.299-2.133-5.205-5.333-9.899-9.301-13.867s-8.661-7.125-13.867-9.301c-4.949-2.048-10.453-3.2-16.299-3.2h-768c-5.845 0-11.349 1.152-16.299 3.2-5.205 2.133-9.899 5.333-13.867 9.301s-7.125 8.661-9.301 13.867c-2.048 4.949-3.2 10.453-3.2 16.299v469.333c0 5.845 1.152 11.349 3.2 16.299 2.133 5.205 5.333 9.899 9.301 13.867s8.661 7.125 13.867 9.301c4.949 2.048 10.453 3.2 16.299 3.2h170.667c14.763 0 27.733 7.467 35.499 18.987l72.661 109.013h210.347l72.661-109.013c8.192-12.245 21.589-18.901 35.499-18.987h170.667c5.845 0 11.349-1.152 16.299-3.2 5.205-2.133 9.899-5.333 13.867-9.301s7.125-8.661 9.301-13.867c2.048-4.949 3.2-10.453 3.2-16.299zM725.333 405.333c0 28.8-5.717 56.405-16.171 81.579-10.837 26.155-26.667 49.621-46.293 69.248s-43.136 35.499-69.248 46.293c-25.216 10.496-52.821 16.213-81.621 16.213s-56.405-5.717-81.579-16.171c-26.155-10.837-49.621-26.667-69.291-46.293s-35.499-43.136-46.293-69.248c-10.453-25.216-16.171-52.821-16.171-81.621s5.717-56.405 16.171-81.579c10.837-26.155 26.667-49.621 46.293-69.248s43.136-35.499 69.248-46.293c25.216-10.496 52.821-16.213 81.621-16.213s56.405 5.717 81.579 16.171c26.155 10.837 49.621 26.667 69.248 46.293s35.499 43.136 46.293 69.248c10.496 25.216 16.213 52.821 16.213 81.621zM640 405.333c0-17.408-3.456-33.92-9.685-48.939-6.485-15.616-16-29.739-27.819-41.557s-25.941-21.333-41.557-27.819c-15.019-6.229-31.531-9.685-48.939-9.685s-33.92 3.456-48.939 9.685c-15.616 6.485-29.739 16-41.557 27.819s-21.333 25.941-27.819 41.557c-6.229 15.019-9.685 31.531-9.685 48.939s3.456 33.92 9.685 48.939c6.485 15.616 16 29.739 27.819 41.557s25.941 21.333 41.557 27.819c15.019 6.229 31.531 9.685 48.939 9.685s33.92-3.456 48.939-9.685c15.616-6.485 29.739-16 41.557-27.819s21.333-25.941 27.819-41.557c6.229-15.019 9.685-31.531 9.685-48.939z" />
<glyph unicode="&#xe92b;" glyph-name="cast" d="M76.8 231.253c19.755-4.011 37.888-11.264 54.101-21.077 16.725-10.112 31.488-23.040 43.691-38.059 17.28-21.205 29.568-46.635 35.371-74.24 4.864-23.040 27.477-37.803 50.56-32.939s37.803 27.477 32.939 50.56c-8.619 40.96-26.837 78.805-52.693 110.507-18.304 22.485-40.448 41.899-65.707 57.173-24.448 14.805-51.755 25.685-81.195 31.701-23.083 4.693-45.611-10.197-50.347-33.28s10.197-45.611 33.28-50.347zM80.597 403.456c42.027-4.693 81.323-16.768 116.821-34.816 36.693-18.688 69.376-43.819 96.811-73.813 47.744-52.309 79.317-119.424 87.936-193.109 2.731-23.424 23.936-40.149 47.317-37.419s40.149 23.936 37.419 47.317c-10.709 91.733-50.091 175.445-109.653 240.725-34.219 37.461-75.093 68.907-121.088 92.331-44.501 22.656-93.739 37.76-146.091 43.605-23.424 2.603-44.501-14.251-47.104-37.675s14.251-44.501 37.675-47.104zM128 618.667v85.333c0 5.845 1.152 11.349 3.2 16.299 2.133 5.205 5.333 9.899 9.301 13.867s8.661 7.125 13.867 9.301c4.949 2.048 10.453 3.2 16.299 3.2h682.667c5.845 0 11.349-1.152 16.299-3.2 5.205-2.133 9.899-5.333 13.867-9.301s7.125-8.661 9.301-13.867c2.048-4.949 3.2-10.453 3.2-16.299v-512c0-5.845-1.152-11.349-3.2-16.299-2.133-5.205-5.333-9.899-9.301-13.867s-8.661-7.125-13.867-9.301c-4.949-2.048-10.453-3.2-16.299-3.2h-256c-23.552 0-42.667-19.115-42.667-42.667s19.115-42.667 42.667-42.667h256c17.28 0 33.835 3.456 48.981 9.728 15.701 6.485 29.781 16 41.557 27.776s21.291 25.856 27.776 41.557c6.229 15.104 9.685 31.659 9.685 48.939v512c0 17.28-3.456 33.835-9.728 48.981-6.485 15.701-16 29.781-27.776 41.557s-25.856 21.291-41.557 27.776c-15.104 6.229-31.659 9.685-48.939 9.685h-682.667c-17.28 0-33.835-3.456-48.981-9.728-15.659-6.485-29.739-16-41.515-27.776s-21.291-25.856-27.776-41.515c-6.272-15.147-9.728-31.701-9.728-48.981v-85.333c0-23.552 19.115-42.667 42.667-42.667s42.667 19.115 42.667 42.667zM128 106.667c0 23.552-19.115 42.667-42.667 42.667s-42.667-19.115-42.667-42.667 19.115-42.667 42.667-42.667 42.667 19.115 42.667 42.667z" />
<glyph unicode="&#xe92c;" glyph-name="check-circle" d="M896 487.253v-39.253c-0.043-52.053-10.411-101.632-29.141-146.816-19.456-46.933-48.043-89.216-83.499-124.629s-77.781-63.915-124.757-83.328c-45.184-18.688-94.763-29.013-146.859-28.971s-101.632 10.411-146.816 29.141c-46.933 19.456-89.216 48.043-124.629 83.499s-63.915 77.781-83.328 124.757c-18.688 45.141-29.013 94.72-28.971 146.816s10.411 101.632 29.141 146.816c19.456 46.933 48.043 89.216 83.499 124.629s77.781 63.915 124.757 83.328c45.184 18.688 94.763 29.013 146.859 28.971 56.747-0.043 110.336-12.331 155.691-33.067 21.419-9.813 46.763-0.341 56.533 21.077s0.341 46.763-21.077 56.533c-56.619 25.856-122.283 40.747-191.104 40.789-63.488 0.043-124.16-12.544-179.499-35.456-57.515-23.723-109.227-58.581-152.491-101.803s-78.165-94.848-101.973-152.32c-22.955-55.339-35.627-115.968-35.669-179.456s12.544-124.16 35.456-179.499c23.765-57.472 58.624-109.184 101.803-152.448s94.848-78.165 152.32-101.973c55.339-22.955 115.968-35.627 179.456-35.669s124.16 12.544 179.499 35.456c57.472 23.765 109.184 58.624 152.448 101.803 43.264 43.221 78.165 94.848 101.973 152.32 22.997 55.339 35.669 115.968 35.712 179.499v39.253c0 23.552-19.115 42.667-42.667 42.667s-42.667-19.115-42.667-42.667zM908.501 819.499l-396.501-396.885-97.835 97.792c-16.683 16.683-43.691 16.683-60.331 0s-16.683-43.691 0-60.331l128-128c16.683-16.683 43.691-16.64 60.373 0l426.667 427.093c16.64 16.683 16.64 43.691-0.043 60.331s-43.691 16.64-60.331-0.043z" />
<glyph unicode="&#xe92d;" glyph-name="check-square" d="M353.835 460.501l128-128c16.683-16.683 43.691-16.683 60.331 0l426.667 426.667c16.683 16.683 16.683 43.691 0 60.331s-43.691 16.683-60.331 0l-396.501-396.501-97.835 97.835c-16.683 16.683-43.691 16.683-60.331 0s-16.683-43.691 0-60.331zM853.333 448v-298.667c0-5.845-1.152-11.349-3.2-16.299-2.133-5.205-5.333-9.899-9.301-13.867s-8.661-7.125-13.867-9.301c-4.949-2.048-10.453-3.2-16.299-3.2h-597.333c-5.845 0-11.349 1.152-16.299 3.2-5.205 2.133-9.899 5.333-13.867 9.301s-7.125 8.661-9.301 13.867c-2.048 4.949-3.2 10.453-3.2 16.299v597.333c0 5.845 1.152 11.349 3.2 16.299 2.133 5.205 5.333 9.899 9.301 13.867s8.661 7.125 13.867 9.301c4.949 2.048 10.453 3.2 16.299 3.2h469.333c23.552 0 42.667 19.115 42.667 42.667s-19.115 42.667-42.667 42.667h-469.333c-17.28 0-33.835-3.456-48.981-9.728-15.659-6.485-29.739-16-41.515-27.776s-21.291-25.856-27.776-41.515c-6.272-15.147-9.728-31.701-9.728-48.981v-597.333c0-17.28 3.456-33.835 9.728-48.981 6.485-15.701 16-29.781 27.776-41.557s25.856-21.291 41.557-27.776c15.104-6.229 31.659-9.685 48.939-9.685h597.333c17.28 0 33.835 3.456 48.981 9.728 15.701 6.485 29.781 16 41.557 27.776s21.291 25.856 27.776 41.557c6.229 15.104 9.685 31.659 9.685 48.939v298.667c0 23.552-19.115 42.667-42.667 42.667s-42.667-19.115-42.667-42.667z" />
<glyph unicode="&#xe92e;" glyph-name="check" d="M823.168 734.165l-439.168-439.168-183.168 183.168c-16.683 16.683-43.691 16.683-60.331 0s-16.683-43.691 0-60.331l213.333-213.333c16.683-16.683 43.691-16.683 60.331 0l469.333 469.333c16.683 16.683 16.683 43.691 0 60.331s-43.691 16.683-60.331 0z" />
<glyph unicode="&#xe92f;" glyph-name="chevron-down" d="M225.835 545.835l256-256c16.683-16.683 43.691-16.683 60.331 0l256 256c16.683 16.683 16.683 43.691 0 60.331s-43.691 16.683-60.331 0l-225.835-225.835-225.835 225.835c-16.683 16.683-43.691 16.683-60.331 0s-16.683-43.691 0-60.331z" />
<glyph unicode="&#xe930;" glyph-name="chevron-left" d="M670.165 222.165l-225.835 225.835 225.835 225.835c16.683 16.683 16.683 43.691 0 60.331s-43.691 16.683-60.331 0l-256-256c-16.683-16.683-16.683-43.691 0-60.331l256-256c16.683-16.683 43.691-16.683 60.331 0s16.683 43.691 0 60.331z" />
<glyph unicode="&#xe931;" glyph-name="chevron-right" d="M414.165 161.835l256 256c16.683 16.683 16.683 43.691 0 60.331l-256 256c-16.683 16.683-43.691 16.683-60.331 0s-16.683-43.691 0-60.331l225.835-225.835-225.835-225.835c-16.683-16.683-16.683-43.691 0-60.331s43.691-16.683 60.331 0z" />
<glyph unicode="&#xe932;" glyph-name="chevron-up" d="M798.165 350.165l-256 256c-16.683 16.683-43.691 16.683-60.331 0l-256-256c-16.683-16.683-16.683-43.691 0-60.331s43.691-16.683 60.331 0l225.835 225.835 225.835-225.835c16.683-16.683 43.691-16.683 60.331 0s16.683 43.691 0 60.331z" />
<glyph unicode="&#xe933;" glyph-name="chevrons-down" d="M268.501 375.168l213.333-213.333c16.683-16.683 43.691-16.683 60.331 0l213.333 213.333c16.683 16.683 16.683 43.691 0 60.331s-43.691 16.683-60.331 0l-183.168-183.168-183.168 183.168c-16.683 16.683-43.691 16.683-60.331 0s-16.683-43.691 0-60.331zM268.501 673.835l213.333-213.333c16.683-16.683 43.691-16.683 60.331 0l213.333 213.333c16.683 16.683 16.683 43.691 0 60.331s-43.691 16.683-60.331 0l-183.168-183.168-183.168 183.168c-16.683 16.683-43.691 16.683-60.331 0s-16.683-43.691 0-60.331z" />
<glyph unicode="&#xe934;" glyph-name="chevrons-left" d="M499.499 264.832l-183.168 183.168 183.168 183.168c16.683 16.683 16.683 43.691 0 60.331s-43.691 16.683-60.331 0l-213.333-213.333c-16.683-16.683-16.683-43.691 0-60.331l213.333-213.333c16.683-16.683 43.691-16.683 60.331 0s16.683 43.691 0 60.331zM798.165 264.832l-183.168 183.168 183.168 183.168c16.683 16.683 16.683 43.691 0 60.331s-43.691 16.683-60.331 0l-213.333-213.333c-16.683-16.683-16.683-43.691 0-60.331l213.333-213.333c16.683-16.683 43.691-16.683 60.331 0s16.683 43.691 0 60.331z" />
<glyph unicode="&#xe935;" glyph-name="chevrons-right" d="M584.832 204.501l213.333 213.333c16.683 16.683 16.683 43.691 0 60.331l-213.333 213.333c-16.683 16.683-43.691 16.683-60.331 0s-16.683-43.691 0-60.331l183.168-183.168-183.168-183.168c-16.683-16.683-16.683-43.691 0-60.331s43.691-16.683 60.331 0zM286.165 204.501l213.333 213.333c16.683 16.683 16.683 43.691 0 60.331l-213.333 213.333c-16.683 16.683-43.691 16.683-60.331 0s-16.683-43.691 0-60.331l183.168-183.168-183.168-183.168c-16.683-16.683-16.683-43.691 0-60.331s43.691-16.683 60.331 0z" />
<glyph unicode="&#xe936;" glyph-name="chevrons-up" d="M755.499 520.832l-213.333 213.333c-16.683 16.683-43.691 16.683-60.331 0l-213.333-213.333c-16.683-16.683-16.683-43.691 0-60.331s43.691-16.683 60.331 0l183.168 183.168 183.168-183.168c16.683-16.683 43.691-16.683 60.331 0s16.683 43.691 0 60.331zM755.499 222.165l-213.333 213.333c-16.683 16.683-43.691 16.683-60.331 0l-213.333-213.333c-16.683-16.683-16.683-43.691 0-60.331s43.691-16.683 60.331 0l183.168 183.168 183.168-183.168c16.683-16.683 43.691-16.683 60.331 0s16.683 43.691 0 60.331z" />
<glyph unicode="&#xe937;" glyph-name="chrome1" d="M315.819 531.925l-95.744 165.589c6.485 7.595 13.312 14.933 20.395 22.016 35.456 35.456 77.739 63.957 124.672 83.413 45.184 18.688 94.763 29.056 146.859 29.056s101.675-10.368 146.859-29.056c46.976-19.456 89.259-47.957 124.672-83.413 17.749-17.749 33.792-37.248 47.829-58.197h-319.36c-28.8 0-56.405-5.717-81.579-16.171-26.155-10.837-49.621-26.667-69.248-46.293-19.072-19.072-34.56-41.728-45.355-66.944zM456.491-18.091c1.963-0.384 3.968-0.597 5.973-0.683 16.299-1.664 32.811-2.56 49.536-2.56 63.488 0 124.16 12.629 179.499 35.541 57.472 23.808 109.141 58.667 152.363 101.888s78.123 94.891 101.888 152.363c22.955 55.381 35.584 116.053 35.584 179.541s-12.629 124.16-35.541 179.499c-0.768 1.835-1.536 3.669-2.304 5.504-0.683 1.835-1.451 3.669-2.347 5.376-23.595 53.12-56.747 100.992-97.237 141.483-43.221 43.221-94.891 78.123-152.363 101.888-55.381 22.955-116.053 35.584-179.541 35.584s-124.16-12.629-179.499-35.541c-57.472-23.808-109.141-58.667-152.363-101.931-15.616-15.616-30.123-32.299-43.435-49.963-1.749-2.005-3.328-4.096-4.693-6.357-21.461-29.568-39.595-61.781-53.803-96.043-22.912-55.339-35.541-116.011-35.541-179.499s12.629-124.16 35.541-179.499c23.808-57.472 58.667-109.141 101.888-152.363s94.891-78.123 152.363-101.888c38.997-16.128 80.597-27.179 123.989-32.299zM537.387 236.16l-95.616-165.76c-26.624 4.907-52.267 12.587-76.629 22.656-46.976 19.456-89.259 47.957-124.672 83.413-35.456 35.456-63.957 77.739-83.413 124.672-18.688 45.184-29.056 94.763-29.056 146.859s10.368 101.675 29.056 146.859c3.243 7.808 6.741 15.531 10.453 23.083l155.477-268.928c10.069-19.243 22.997-36.693 38.187-51.883 19.627-19.627 43.136-35.499 69.248-46.293 25.173-10.453 52.779-16.171 81.579-16.171 8.576 0 17.067 0.512 25.387 1.493zM624.512 386.944c-0.64-0.939-1.28-1.92-1.877-2.944l-3.243-5.589c-4.907-7.552-10.581-14.549-16.939-20.907-11.819-11.819-25.941-21.333-41.557-27.819-14.976-6.229-31.488-9.685-48.896-9.685s-33.92 3.456-48.939 9.685c-15.616 6.485-29.739 16-41.557 27.819-7.083 7.083-13.355 14.976-18.603 23.552-0.469 1.024-1.024 2.005-1.579 2.987l-3.456 6.016c-1.493 2.944-2.901 5.973-4.181 9.045-6.229 14.976-9.685 31.488-9.685 48.896s3.456 33.92 9.685 48.939c6.485 15.616 16 29.739 27.819 41.557s25.941 21.333 41.557 27.819c15.019 6.229 31.531 9.685 48.939 9.685s33.92-3.456 48.939-9.685c15.616-6.485 29.739-16 41.557-27.819s21.333-25.941 27.819-41.557c6.229-15.019 9.685-31.531 9.685-48.939s-3.456-33.92-9.685-48.939c-1.707-4.139-3.669-8.192-5.803-12.117zM537.088 64.811l155.307 269.227c6.485 10.24 12.117 21.035 16.811 32.384 10.411 25.173 16.128 52.779 16.128 81.579s-5.717 56.405-16.171 81.579c-6.912 16.683-15.829 32.256-26.496 46.421h191.488c14.123-39.979 21.845-83.072 21.845-128 0-52.096-10.368-101.675-29.056-146.859-19.456-46.976-47.957-89.259-83.413-124.672s-77.739-63.957-124.672-83.413c-37.888-15.701-78.848-25.515-121.771-28.245z" />
<glyph unicode="&#xe938;" glyph-name="circle" d="M981.333 448c0 63.488-12.629 124.16-35.541 179.499-23.808 57.472-58.667 109.141-101.888 152.363s-94.891 78.123-152.363 101.888c-55.381 22.955-116.053 35.584-179.541 35.584s-124.16-12.629-179.499-35.541c-57.472-23.808-109.141-58.667-152.363-101.931s-78.123-94.891-101.931-152.363c-22.912-55.339-35.541-116.011-35.541-179.499s12.629-124.16 35.541-179.499c23.808-57.472 58.667-109.141 101.888-152.363s94.891-78.123 152.363-101.888c55.381-22.955 116.053-35.584 179.541-35.584s124.16 12.629 179.499 35.541c57.472 23.808 109.141 58.667 152.363 101.888s78.123 94.891 101.888 152.363c22.955 55.381 35.584 116.053 35.584 179.541zM896 448c0-52.096-10.368-101.675-29.056-146.859-19.456-46.976-47.957-89.259-83.413-124.672s-77.739-63.957-124.672-83.413c-45.184-18.688-94.763-29.056-146.859-29.056s-101.675 10.368-146.859 29.056c-46.976 19.456-89.259 47.957-124.672 83.413-35.456 35.456-63.957 77.739-83.413 124.672-18.688 45.184-29.056 94.763-29.056 146.859s10.368 101.675 29.056 146.859c19.456 46.976 47.957 89.259 83.413 124.672s77.739 63.957 124.672 83.413c45.184 18.688 94.763 29.056 146.859 29.056s101.675-10.368 146.859-29.056c46.976-19.456 89.259-47.957 124.672-83.413 35.456-35.456 63.957-77.739 83.413-124.672 18.688-45.184 29.056-94.763 29.056-146.859z" />
<glyph unicode="&#xe939;" glyph-name="clipboard1" d="M298.667 746.667c0-11.477 2.304-22.528 6.485-32.64 4.352-10.496 10.667-19.84 18.517-27.691s17.237-14.165 27.691-18.517c10.112-4.181 21.163-6.485 32.64-6.485h256c11.477 0 22.528 2.304 32.64 6.485 10.496 4.352 19.84 10.667 27.691 18.517s14.165 17.237 18.517 27.691c4.181 10.112 6.485 21.163 6.485 32.64h42.667c5.845 0 11.349-1.152 16.299-3.2 5.205-2.133 9.899-5.333 13.867-9.301s7.125-8.661 9.301-13.867c2.048-4.949 3.2-10.453 3.2-16.299v-597.333c0-5.845-1.152-11.349-3.2-16.299-2.133-5.205-5.333-9.899-9.301-13.867s-8.661-7.125-13.867-9.301c-4.949-2.048-10.453-3.2-16.299-3.2h-512c-5.845 0-11.349 1.152-16.299 3.2-5.205 2.133-9.899 5.333-13.867 9.301s-7.125 8.661-9.301 13.867c-2.048 4.949-3.2 10.453-3.2 16.299v597.333c0 5.845 1.152 11.349 3.2 16.299 2.133 5.205 5.333 9.899 9.301 13.867s8.661 7.125 13.867 9.301c4.949 2.048 10.453 3.2 16.299 3.2zM384 917.333c-11.477 0-22.528-2.304-32.64-6.485-10.496-4.352-19.883-10.667-27.691-18.517s-14.165-17.195-18.517-27.691c-4.181-10.112-6.485-21.163-6.485-32.64h-42.667c-17.28 0-33.835-3.456-48.981-9.728-15.659-6.485-29.739-16-41.515-27.776s-21.291-25.856-27.776-41.515c-6.272-15.147-9.728-31.701-9.728-48.981v-597.333c0-17.28 3.456-33.835 9.728-48.981 6.485-15.701 16-29.781 27.776-41.557s25.856-21.291 41.557-27.776c15.104-6.229 31.659-9.685 48.939-9.685h512c17.28 0 33.835 3.456 48.981 9.728 15.701 6.485 29.781 16 41.557 27.776s21.291 25.856 27.776 41.557c6.229 15.104 9.685 31.659 9.685 48.939v597.333c0 17.28-3.456 33.835-9.728 48.981-6.485 15.701-16 29.781-27.776 41.557s-25.856 21.291-41.557 27.776c-15.104 6.229-31.659 9.685-48.939 9.685h-42.667c0 11.477-2.304 22.528-6.485 32.64-4.352 10.496-10.667 19.84-18.517 27.691s-17.237 14.165-27.691 18.517c-10.112 4.181-21.163 6.485-32.64 6.485zM384 832h256v-85.333h-256z" />
<glyph unicode="&#xe93a;" glyph-name="clock1" d="M981.333 448c0 63.488-12.629 124.16-35.541 179.499-23.808 57.472-58.667 109.141-101.888 152.363s-94.891 78.123-152.363 101.888c-55.381 22.955-116.053 35.584-179.541 35.584s-124.16-12.629-179.499-35.541c-57.472-23.808-109.141-58.667-152.363-101.931s-78.123-94.891-101.931-152.363c-22.912-55.339-35.541-116.011-35.541-179.499s12.629-124.16 35.541-179.499c23.808-57.472 58.667-109.141 101.888-152.363s94.891-78.123 152.363-101.888c55.381-22.955 116.053-35.584 179.541-35.584s124.16 12.629 179.499 35.541c57.472 23.808 109.141 58.667 152.363 101.888s78.123 94.891 101.888 152.363c22.955 55.381 35.584 116.053 35.584 179.541zM896 448c0-52.096-10.368-101.675-29.056-146.859-19.456-46.976-47.957-89.259-83.413-124.672s-77.739-63.957-124.672-83.413c-45.184-18.688-94.763-29.056-146.859-29.056s-101.675 10.368-146.859 29.056c-46.976 19.456-89.259 47.957-124.672 83.413-35.456 35.456-63.957 77.739-83.413 124.672-18.688 45.184-29.056 94.763-29.056 146.859s10.368 101.675 29.056 146.859c19.456 46.976 47.957 89.259 83.413 124.672s77.739 63.957 124.672 83.413c45.184 18.688 94.763 29.056 146.859 29.056s101.675-10.368 146.859-29.056c46.976-19.456 89.259-47.957 124.672-83.413 35.456-35.456 63.957-77.739 83.413-124.672 18.688-45.184 29.056-94.763 29.056-146.859zM469.333 704v-256c0-16.597 9.472-31.019 23.595-38.144l170.667-85.333c21.077-10.539 46.72-2.005 57.259 19.072s2.005 46.72-19.072 57.259l-147.115 73.515v229.632c0 23.552-19.115 42.667-42.667 42.667s-42.667-19.115-42.667-42.667z" />
<glyph unicode="&#xe93b;" glyph-name="cloud-drizzle" d="M298.667 149.333v-85.333c0-23.552 19.115-42.667 42.667-42.667s42.667 19.115 42.667 42.667v85.333c0 23.552-19.115 42.667-42.667 42.667s-42.667-19.115-42.667-42.667zM298.667 405.333v-85.333c0-23.552 19.115-42.667 42.667-42.667s42.667 19.115 42.667 42.667v85.333c0 23.552-19.115 42.667-42.667 42.667s-42.667-19.115-42.667-42.667zM640 149.333v-85.333c0-23.552 19.115-42.667 42.667-42.667s42.667 19.115 42.667 42.667v85.333c0 23.552-19.115 42.667-42.667 42.667s-42.667-19.115-42.667-42.667zM640 405.333v-85.333c0-23.552 19.115-42.667 42.667-42.667s42.667 19.115 42.667 42.667v85.333c0 23.552-19.115 42.667-42.667 42.667s-42.667-19.115-42.667-42.667zM469.333 64v-85.333c0-23.552 19.115-42.667 42.667-42.667s42.667 19.115 42.667 42.667v85.333c0 23.552-19.115 42.667-42.667 42.667s-42.667-19.115-42.667-42.667zM469.333 320v-85.333c0-23.552 19.115-42.667 42.667-42.667s42.667 19.115 42.667 42.667v85.333c0 23.552-19.115 42.667-42.667 42.667s-42.667-19.115-42.667-42.667zM870.443 213.504c31.701 13.867 59.264 33.451 81.92 57.045 23.509 24.491 41.685 53.205 53.845 84.267s18.261 64.469 17.579 98.432c-0.64 32.683-7.637 65.792-21.504 97.451-12.032 27.477-28.373 51.84-47.915 72.619-20.181 21.461-43.776 38.997-69.504 52.181-35.669 18.261-75.52 28.16-116.48 28.501h-22.571c-13.269 37.717-32.043 72.235-55.125 102.912-30.635 40.661-68.821 74.453-111.915 99.883s-91.136 42.453-141.568 49.536c-48.555 6.827-99.2 4.437-149.461-8.533s-95.744-35.413-134.912-64.896c-40.661-30.635-74.496-68.821-99.883-111.915s-42.453-91.136-49.536-141.525c-6.827-48.555-4.437-99.2 8.533-149.461 10.709-41.472 27.819-79.659 49.963-113.664 22.699-34.859 50.603-65.323 82.261-90.411 18.475-14.635 45.312-11.52 59.947 6.955s11.52 45.312-6.955 59.947c-24.448 19.371-46.123 42.965-63.744 70.059-17.152 26.368-30.507 56.107-38.869 88.491-10.155 39.253-11.989 78.592-6.656 116.224 5.504 39.125 18.773 76.544 38.571 110.123s46.123 63.275 77.696 87.083c30.379 22.784 65.664 40.235 104.917 50.347s78.592 11.989 116.224 6.656c39.125-5.504 76.544-18.773 110.123-38.571s63.275-46.123 87.083-77.696c22.869-30.379 40.32-65.664 50.432-104.917 4.907-18.517 21.547-31.957 41.301-31.957h53.419c27.605-0.213 54.4-6.912 78.251-19.115 17.195-8.832 32.896-20.48 46.251-34.731 12.971-13.739 23.808-29.952 31.872-48.384 9.301-21.248 13.909-43.264 14.336-64.939 0.469-22.571-3.627-44.885-11.733-65.664s-20.267-39.936-35.883-56.192c-15.019-15.659-33.365-28.715-54.613-38.016-21.589-9.472-31.403-34.603-21.973-56.192s34.603-31.403 56.192-21.973z" />
<glyph unicode="&#xe93c;" glyph-name="cloud-lightning" d="M819.157 197.12c33.92 6.869 64.981 20.224 92.075 38.485 28.16 18.987 51.968 43.221 70.4 70.997 18.389 27.776 31.445 59.179 37.931 92.501 6.272 32.085 6.4 65.92-0.469 99.797-6.315 31.189-18.133 60.032-34.261 85.589-16.683 26.411-37.931 49.28-62.464 67.712-21.931 16.512-46.507 29.483-72.747 38.315-25.813 8.661-53.248 13.355-81.451 13.483h-22.357c-13.269 37.717-32.043 72.235-55.168 102.912-30.635 40.661-68.821 74.453-111.915 99.84s-91.179 42.453-141.568 49.536c-48.555 6.827-99.2 4.437-149.461-8.576s-95.744-35.413-134.912-64.896c-40.661-30.549-74.453-68.736-99.84-111.829s-42.453-91.179-49.536-141.568c-6.827-48.555-4.437-99.2 8.576-149.461 12.501-48.341 33.664-92.203 61.525-130.347 28.885-39.595 64.896-72.875 105.643-98.56 6.101-3.84 12.331-7.509 18.645-11.008 20.608-11.435 46.592-3.968 58.027 16.64s3.968 46.592-16.64 57.984c-4.907 2.731-9.771 5.589-14.507 8.576-31.787 20.011-59.776 45.952-82.219 76.672-21.589 29.568-38.059 63.659-47.829 101.376-10.197 39.253-12.032 78.549-6.741 116.224 5.504 39.125 18.773 76.544 38.571 110.123s46.123 63.275 77.696 87.083c30.379 22.869 65.664 40.32 104.917 50.432s78.592 11.989 116.224 6.699c39.125-5.504 76.544-18.773 110.123-38.571s63.275-46.123 87.083-77.696c22.869-30.379 40.32-65.664 50.432-104.917 4.907-18.56 21.547-32 41.301-32h53.589c18.944-0.085 37.333-3.243 54.571-9.045 17.579-5.931 34.005-14.592 48.683-25.6 16.384-12.331 30.507-27.52 41.557-45.056 10.667-16.939 18.56-36.053 22.784-57.003 4.608-22.741 4.48-45.227 0.341-66.517-4.309-22.144-13.013-43.093-25.301-61.696s-28.203-34.773-46.933-47.36c-18.005-12.117-38.656-21.035-61.397-25.643-23.083-4.693-38.016-27.221-33.323-50.304s27.221-38.016 50.304-33.323zM519.168 514.347l-170.667-256c-13.056-19.627-7.765-46.080 11.819-59.179 7.339-4.907 15.659-7.211 23.68-7.168h176.256l-126.464-189.653c-13.056-19.627-7.765-46.080 11.819-59.179s46.080-7.765 59.179 11.819l170.667 256c4.523 6.656 7.211 14.848 7.211 23.68 0 23.552-19.115 42.667-42.667 42.667h-176.256l126.464 189.653c13.056 19.627 7.765 46.080-11.819 59.179s-46.080 7.765-59.179-11.819z" />
<glyph unicode="&#xe93d;" glyph-name="cloud-off" d="M1003.989 220.16c13.483 31.872 20.053 65.024 20.309 97.707 0.256 33.963-6.272 67.285-18.773 98.219-12.501 30.891-31.061 59.392-54.869 83.584-22.955 23.296-50.731 42.539-82.603 56.064-33.067 13.995-67.712 20.608-100.523 20.267h-21.589c-11.136 32-26.24 61.781-44.672 88.875-25.216 37.12-56.576 69.12-92.331 94.976-55.381 40.021-121.344 65.323-191.445 71.979-23.467 2.219-44.288-14.976-46.507-38.443s14.976-44.288 38.443-46.507c54.869-5.205 106.368-25.003 149.547-56.192 27.861-20.139 52.181-45.013 71.765-73.771 18.901-27.861 33.408-59.435 42.197-94.080 4.779-18.645 21.461-32.171 41.301-32.171h54.229c20.907 0.213 43.947-4.011 66.347-13.525 21.376-9.045 39.851-21.888 55.040-37.333 15.829-16.085 28.203-35.072 36.565-55.765s12.715-42.923 12.544-65.493c-0.171-21.717-4.523-43.776-13.568-65.109-9.173-21.717 0.939-46.72 22.656-55.936s46.72 0.939 55.936 22.656zM207.104 692.565l543.232-543.232h-366.763c-40.96-0.427-81.237 7.339-118.4 22.485-31.061 12.672-59.947 30.464-85.333 53.035-24.533 21.803-45.867 48.085-62.72 78.592-19.627 35.456-31.232 73.088-35.499 110.891-4.437 39.253-0.939 78.805 9.856 116.267s28.843 72.789 53.504 103.68c17.451 21.888 38.229 41.6 62.123 58.283zM12.501 887.168l133.504-133.547c-25.643-19.456-48.299-41.728-67.755-66.133-31.744-39.808-54.912-85.205-68.779-133.291s-18.347-98.859-12.629-149.461c5.504-48.725 20.48-97.152 45.611-142.592 21.589-39.040 49.024-72.917 80.725-101.077 32.725-29.099 69.931-52.011 109.781-68.267 47.701-19.413 99.2-29.312 151.467-28.8h383.573c20.864 0.043 41.259 2.56 60.459 7.211l122.709-122.709c16.683-16.683 43.691-16.683 60.331 0s16.683 43.691 0 60.331l-938.667 938.667c-16.683 16.683-43.691 16.683-60.331 0-16.64-16.64-16.683-43.648 0-60.331z" />
<glyph unicode="&#xe93e;" glyph-name="cloud-rain" d="M640 405.333v-341.333c0-23.552 19.115-42.667 42.667-42.667s42.667 19.115 42.667 42.667v341.333c0 23.552-19.115 42.667-42.667 42.667s-42.667-19.115-42.667-42.667zM298.667 405.333v-341.333c0-23.552 19.115-42.667 42.667-42.667s42.667 19.115 42.667 42.667v341.333c0 23.552-19.115 42.667-42.667 42.667s-42.667-19.115-42.667-42.667zM469.333 320v-341.333c0-23.552 19.115-42.667 42.667-42.667s42.667 19.115 42.667 42.667v341.333c0 23.552-19.115 42.667-42.667 42.667s-42.667-19.115-42.667-42.667zM870.443 213.504c31.701 13.867 59.264 33.451 81.92 57.045 23.509 24.491 41.685 53.205 53.845 84.267s18.261 64.469 17.579 98.432c-0.64 32.683-7.637 65.792-21.504 97.451-12.032 27.477-28.373 51.84-47.915 72.619-20.181 21.461-43.776 38.997-69.504 52.181-35.669 18.261-75.52 28.16-116.48 28.501h-22.571c-13.269 37.717-32.043 72.235-55.125 102.912-30.635 40.661-68.821 74.453-111.915 99.883s-91.136 42.453-141.568 49.536c-48.555 6.827-99.2 4.437-149.461-8.533s-95.744-35.413-134.912-64.896c-40.661-30.635-74.496-68.821-99.883-111.915s-42.453-91.136-49.536-141.525c-6.827-48.555-4.437-99.2 8.533-149.461 10.709-41.472 27.819-79.659 49.963-113.664 22.699-34.859 50.603-65.323 82.261-90.411 18.475-14.635 45.312-11.52 59.947 6.955s11.52 45.312-6.955 59.947c-24.448 19.371-46.123 42.965-63.744 70.059-17.152 26.368-30.507 56.107-38.869 88.491-10.155 39.253-11.989 78.592-6.656 116.224 5.504 39.125 18.773 76.544 38.571 110.123s46.123 63.275 77.696 87.083c30.379 22.784 65.664 40.235 104.917 50.347s78.592 11.989 116.224 6.656c39.125-5.504 76.544-18.773 110.123-38.571s63.275-46.123 87.083-77.696c22.869-30.379 40.32-65.664 50.432-104.917 4.907-18.517 21.547-31.957 41.301-31.957h53.419c27.605-0.213 54.4-6.912 78.251-19.115 17.195-8.832 32.896-20.48 46.251-34.731 12.971-13.739 23.808-29.952 31.872-48.384 9.301-21.248 13.909-43.264 14.336-64.939 0.469-22.571-3.627-44.885-11.733-65.664s-20.267-39.936-35.883-56.192c-15.019-15.659-33.365-28.715-54.613-38.016-21.589-9.472-31.403-34.603-21.973-56.192s34.603-31.403 56.192-21.973z" />
<glyph unicode="&#xe93f;" glyph-name="cloud-snow" d="M870.443 170.837c31.701 13.867 59.264 33.451 81.92 57.045 23.509 24.491 41.685 53.205 53.845 84.267s18.261 64.469 17.579 98.432c-0.64 32.683-7.637 65.792-21.504 97.451-12.032 27.477-28.373 51.84-47.915 72.619-20.181 21.461-43.776 38.997-69.504 52.181-35.669 18.261-75.52 28.16-116.48 28.501h-22.571c-13.269 37.717-32.043 72.235-55.125 102.912-30.635 40.661-68.821 74.453-111.915 99.883s-91.136 42.453-141.568 49.536c-48.555 6.827-99.2 4.437-149.461-8.533s-95.744-35.413-134.912-64.896c-40.661-30.635-74.496-68.821-99.883-111.915s-42.453-91.136-49.536-141.525c-6.827-48.555-4.437-99.2 8.533-149.461 10.709-41.472 27.819-79.659 49.963-113.664 22.699-34.859 50.603-65.323 82.261-90.411 18.475-14.635 45.312-11.52 59.947 6.955s11.52 45.312-6.955 59.947c-24.448 19.371-46.123 42.965-63.744 70.059-17.152 26.368-30.507 56.107-38.869 88.491-10.155 39.253-11.989 78.592-6.656 116.224 5.504 39.125 18.773 76.544 38.571 110.123s46.123 63.275 77.696 87.083c30.379 22.784 65.664 40.235 104.917 50.347s78.592 11.989 116.224 6.656c39.125-5.504 76.544-18.773 110.123-38.571s63.275-46.123 87.083-77.696c22.869-30.379 40.32-65.664 50.432-104.917 4.907-18.517 21.547-31.957 41.301-31.957h53.419c27.605-0.213 54.4-6.912 78.251-19.115 17.195-8.789 32.896-20.48 46.251-34.731 12.971-13.739 23.808-29.952 31.872-48.384 9.301-21.248 13.909-43.264 14.336-64.939 0.469-22.571-3.627-44.885-11.733-65.664s-20.267-39.936-35.883-56.192c-15.019-15.659-33.365-28.715-54.613-38.016-21.589-9.472-31.403-34.603-21.973-56.192s34.603-31.403 56.192-21.973zM384 277.333c0 23.552-19.115 42.667-42.667 42.667s-42.667-19.115-42.667-42.667 19.115-42.667 42.667-42.667 42.667 19.115 42.667 42.667zM384 106.667c0 23.552-19.115 42.667-42.667 42.667s-42.667-19.115-42.667-42.667 19.115-42.667 42.667-42.667 42.667 19.115 42.667 42.667zM554.667 192c0 23.552-19.115 42.667-42.667 42.667s-42.667-19.115-42.667-42.667 19.115-42.667 42.667-42.667 42.667 19.115 42.667 42.667zM554.667 21.333c0 23.552-19.115 42.667-42.667 42.667s-42.667-19.115-42.667-42.667 19.115-42.667 42.667-42.667 42.667 19.115 42.667 42.667zM725.333 277.333c0 23.552-19.115 42.667-42.667 42.667s-42.667-19.115-42.667-42.667 19.115-42.667 42.667-42.667 42.667 19.115 42.667 42.667zM725.333 106.667c0 23.552-19.115 42.667-42.667 42.667s-42.667-19.115-42.667-42.667 19.115-42.667 42.667-42.667 42.667 19.115 42.667 42.667z" />
<glyph unicode="&#xe940;" glyph-name="cloud1" d="M768 490.667c23.211 0 45.227-4.608 65.237-12.928 20.864-8.619 39.637-21.333 55.424-37.077s28.459-34.56 37.077-55.424c8.32-20.011 12.928-42.027 12.928-65.237s-4.608-45.227-12.928-65.237c-8.619-20.864-21.333-39.637-37.077-55.424s-34.56-28.459-55.424-37.077c-20.011-8.32-42.027-12.928-65.237-12.928h-383.787c-62.379 0.341-121.728 19.669-170.88 53.632-28.971 20.053-54.357 45.141-74.752 74.368-19.712 28.288-34.859 60.501-44.032 96-10.112 39.253-11.989 78.592-6.656 116.224 5.504 39.125 18.773 76.544 38.571 110.123s46.123 63.275 77.696 87.083c30.379 22.869 65.664 40.277 104.917 50.432s78.592 11.989 116.224 6.656c39.125-5.504 76.544-18.773 110.123-38.571s63.275-46.123 87.083-77.696c22.869-30.379 40.32-65.664 50.432-104.917 4.907-18.56 21.547-32 41.301-32zM768 576h-22.187c-13.269 37.717-32.043 72.235-55.125 102.912-30.635 40.661-68.821 74.453-111.915 99.883s-91.136 42.453-141.568 49.579c-48.555 6.827-99.2 4.437-149.461-8.533s-95.744-35.413-134.912-64.939c-40.661-30.592-74.453-68.779-99.883-111.872s-42.453-91.179-49.536-141.568c-6.827-48.555-4.437-99.2 8.533-149.461 11.733-45.44 31.189-86.997 56.661-123.52 26.325-37.717 59.008-70.016 96.213-95.701 63.061-43.605 139.136-68.352 218.965-68.779h384.213c34.603 0 67.712 6.869 97.92 19.413 31.36 12.971 59.52 32 83.115 55.595s42.581 51.755 55.595 83.115c12.501 30.165 19.371 63.275 19.371 97.877s-6.869 67.712-19.413 97.92c-12.971 31.36-32 59.52-55.595 83.115s-51.755 42.581-83.115 55.595c-30.165 12.501-63.275 19.371-97.877 19.371z" />
<glyph unicode="&#xe941;" glyph-name="code" d="M712.832 161.835l256 256c16.683 16.683 16.683 43.691 0 60.331l-256 256c-16.683 16.683-43.691 16.683-60.331 0s-16.683-43.691 0-60.331l225.835-225.835-225.835-225.835c-16.683-16.683-16.683-43.691 0-60.331s43.691-16.683 60.331 0zM311.168 734.165l-256-256c-16.683-16.683-16.683-43.691 0-60.331l256-256c16.683-16.683 43.691-16.683 60.331 0s16.683 43.691 0 60.331l-225.835 225.835 225.835 225.835c16.683 16.683 16.683 43.691 0 60.331s-43.691 16.683-60.331 0z" />
<glyph unicode="&#xe942;" glyph-name="codepen1" d="M224.256 448l-96.256-67.371v134.784zM896 380.629l-96.256 67.371 96.256 67.371zM725.333 395.904l137.045-95.957-307.712-199.979v176.512zM373.077 448l138.923 97.237 138.923-97.237-138.923-97.237zM161.621 299.989l137.045 95.915 170.667-119.467v-176.512zM535.765 910.123c-6.784 4.565-14.976 7.211-23.765 7.211s-16.981-2.645-23.765-7.211l-426.155-276.992c-11.776-7.765-19.413-20.864-19.413-35.797v-298.667c0.043-7.893 2.219-15.616 6.315-22.357 1.749-2.901 3.883-5.589 6.357-8.021 2.005-2.005 4.267-3.797 6.741-5.419l0.811-0.512 425.344-276.48c6.784-4.565 14.976-7.211 23.765-7.211s16.981 2.645 23.765 7.211l426.155 276.992c11.776 7.765 19.413 20.864 19.413 35.797v298.667c-0.043 7.893-2.219 15.659-6.315 22.357-1.749 2.859-3.883 5.547-6.357 7.979-2.005 2.005-4.267 3.797-6.741 5.419l-0.811 0.512zM554.667 619.563v176.469l307.712-200.021-137.045-95.915zM469.333 796.032v-176.512l-170.667-119.467-137.045 95.957z" />
<glyph unicode="&#xe943;" glyph-name="coffee" d="M810.667 320v256c17.408 0 33.92-3.456 48.939-9.685 15.616-6.485 29.739-16 41.557-27.819s21.333-25.941 27.819-41.557c6.229-15.019 9.685-31.531 9.685-48.939s-3.456-33.92-9.685-48.939c-6.485-15.616-16-29.739-27.819-41.557s-25.941-21.333-41.557-27.819c-15.019-6.229-31.531-9.685-48.939-9.685zM85.333 661.333c-23.552 0-42.667-19.115-42.667-42.667v-384c0-28.8 5.717-56.405 16.171-81.579 10.837-26.155 26.667-49.621 46.293-69.248s43.136-35.499 69.248-46.293c25.216-10.496 52.821-16.213 81.621-16.213h341.333c28.8 0 56.405 5.717 81.579 16.171 26.155 10.837 49.621 26.667 69.248 46.293s35.499 43.136 46.293 69.248c10.496 25.216 16.213 52.821 16.213 81.621 28.8 0 56.405 5.717 81.579 16.171 26.155 10.837 49.621 26.667 69.248 46.293s35.499 43.136 46.293 69.248c10.496 25.216 16.213 52.821 16.213 81.621s-5.717 56.405-16.171 81.579c-10.837 26.155-26.667 49.621-46.293 69.248s-43.136 35.499-69.248 46.293c-25.216 10.496-52.821 16.213-81.621 16.213h-42.667zM128 576h597.333v-341.333c0-17.408-3.456-33.92-9.685-48.939-6.485-15.616-16-29.739-27.819-41.557s-25.941-21.333-41.557-27.819c-15.019-6.229-31.531-9.685-48.939-9.685h-341.333c-17.408 0-33.92 3.456-48.939 9.685-15.616 6.485-29.739 16-41.557 27.819s-21.333 25.941-27.819 41.557c-6.229 15.019-9.685 31.531-9.685 48.939zM213.333 917.333v-128c0-23.552 19.115-42.667 42.667-42.667s42.667 19.115 42.667 42.667v128c0 23.552-19.115 42.667-42.667 42.667s-42.667-19.115-42.667-42.667zM384 917.333v-128c0-23.552 19.115-42.667 42.667-42.667s42.667 19.115 42.667 42.667v128c0 23.552-19.115 42.667-42.667 42.667s-42.667-19.115-42.667-42.667zM554.667 917.333v-128c0-23.552 19.115-42.667 42.667-42.667s42.667 19.115 42.667 42.667v128c0 23.552-19.115 42.667-42.667 42.667s-42.667-19.115-42.667-42.667z" />
<glyph unicode="&#xe944;" glyph-name="command1" d="M597.333 533.333v-170.667h-170.667v170.667zM768 789.333c11.648 0 22.613-2.304 32.64-6.443 10.411-4.309 19.797-10.667 27.733-18.56s14.251-17.323 18.56-27.733c4.096-9.984 6.4-20.949 6.4-32.597s-2.304-22.613-6.443-32.64c-4.309-10.411-10.667-19.797-18.56-27.733s-17.323-14.251-27.733-18.56c-9.984-4.096-20.949-6.4-32.597-6.4h-85.333v85.333c0 11.648 2.304 22.613 6.443 32.64 4.309 10.411 10.667 19.797 18.56 27.733s17.323 14.251 27.733 18.56c9.984 4.096 20.949 6.4 32.597 6.4zM597.333 618.667h-170.667v85.333c0 23.040-4.608 45.099-12.928 65.28-8.661 20.907-21.333 39.68-37.035 55.381s-34.517 28.416-55.424 37.077c-20.181 8.32-42.24 12.928-65.28 12.928s-45.099-4.608-65.28-12.928c-20.907-8.661-39.68-21.333-55.381-37.035s-28.416-34.517-37.077-55.424c-8.32-20.181-12.928-42.24-12.928-65.28s4.608-45.099 12.928-65.28c8.661-20.907 21.333-39.68 37.035-55.381s34.517-28.416 55.424-37.077c20.181-8.32 42.24-12.928 65.28-12.928h85.333v-170.667h-85.333c-23.040 0-45.099-4.608-65.28-12.928-20.907-8.661-39.68-21.333-55.381-37.035s-28.416-34.517-37.077-55.424c-8.32-20.181-12.928-42.24-12.928-65.28s4.608-45.099 12.928-65.28c8.661-20.907 21.333-39.68 37.035-55.381s34.475-28.373 55.381-37.035c20.224-8.363 42.283-12.971 65.323-12.971s45.099 4.608 65.28 12.928c20.907 8.661 39.68 21.333 55.381 37.035s28.373 34.475 37.035 55.381c8.363 20.224 12.971 42.283 12.971 65.323v85.333h170.667v-85.333c0-23.040 4.608-45.099 12.928-65.28 8.661-20.907 21.333-39.68 37.035-55.381s34.475-28.373 55.381-37.035c20.224-8.363 42.283-12.971 65.323-12.971s45.099 4.608 65.28 12.928c20.907 8.661 39.68 21.333 55.381 37.035s28.373 34.475 37.035 55.381c8.363 20.224 12.971 42.283 12.971 65.323s-4.608 45.099-12.928 65.28c-8.661 20.907-21.333 39.68-37.035 55.381s-34.475 28.373-55.381 37.035c-20.224 8.363-42.283 12.971-65.323 12.971h-85.333v170.667h85.333c23.040 0 45.099 4.608 65.28 12.928 20.907 8.661 39.68 21.333 55.381 37.035s28.373 34.475 37.035 55.381c8.363 20.224 12.971 42.283 12.971 65.323s-4.608 45.099-12.928 65.28c-8.661 20.907-21.333 39.68-37.035 55.381s-34.475 28.373-55.381 37.035c-20.224 8.363-42.283 12.971-65.323 12.971s-45.099-4.608-65.28-12.928c-20.907-8.661-39.68-21.333-55.381-37.035s-28.416-34.517-37.077-55.424c-8.32-20.181-12.928-42.24-12.928-65.28zM341.333 618.667h-85.333c-11.648 0-22.613 2.304-32.64 6.443-10.411 4.309-19.797 10.667-27.691 18.56s-14.251 17.323-18.56 27.733c-4.139 9.984-6.443 20.949-6.443 32.597s2.304 22.613 6.443 32.64c4.309 10.411 10.667 19.797 18.56 27.733s17.323 14.251 27.733 18.56c9.984 4.096 20.949 6.4 32.597 6.4s22.613-2.304 32.64-6.443c10.411-4.309 19.797-10.667 27.733-18.56s14.251-17.323 18.56-27.733c4.096-9.984 6.4-20.949 6.4-32.597zM341.333 277.333v-85.333c0-11.648-2.304-22.613-6.443-32.64-4.309-10.411-10.667-19.797-18.56-27.733s-17.323-14.251-27.733-18.56c-9.984-4.096-20.949-6.4-32.597-6.4s-22.613 2.304-32.64 6.443c-10.411 4.309-19.797 10.667-27.733 18.56s-14.251 17.323-18.56 27.733c-4.096 9.984-6.4 20.949-6.4 32.597s2.304 22.613 6.443 32.64c4.309 10.411 10.667 19.797 18.56 27.733s17.323 14.251 27.733 18.56c9.984 4.096 20.949 6.4 32.597 6.4zM682.667 277.333h85.333c11.648 0 22.613-2.304 32.64-6.443 10.411-4.309 19.797-10.667 27.733-18.56s14.251-17.323 18.56-27.733c4.096-9.984 6.4-20.949 6.4-32.597s-2.304-22.613-6.443-32.64c-4.309-10.411-10.667-19.797-18.56-27.733s-17.323-14.251-27.733-18.56c-9.984-4.096-20.949-6.4-32.597-6.4s-22.613 2.304-32.64 6.443c-10.411 4.309-19.797 10.667-27.733 18.56s-14.251 17.323-18.56 27.733c-4.096 9.984-6.4 20.949-6.4 32.597z" />
<glyph unicode="&#xe945;" glyph-name="compass1" d="M981.333 448c0 63.488-12.629 124.16-35.541 179.499-23.808 57.472-58.667 109.141-101.888 152.363s-94.891 78.123-152.363 101.888c-55.381 22.955-116.053 35.584-179.541 35.584s-124.16-12.629-179.499-35.541c-57.472-23.808-109.141-58.667-152.363-101.931s-78.123-94.891-101.931-152.363c-22.912-55.339-35.541-116.011-35.541-179.499s12.629-124.16 35.541-179.499c23.808-57.472 58.667-109.141 101.888-152.363s94.891-78.123 152.363-101.888c55.381-22.955 116.053-35.584 179.541-35.584s124.16 12.629 179.499 35.541c57.472 23.808 109.141 58.667 152.363 101.888s78.123 94.891 101.888 152.363c22.955 55.381 35.584 116.053 35.584 179.541zM896 448c0-52.096-10.368-101.675-29.056-146.859-19.456-46.976-47.957-89.259-83.413-124.672s-77.739-63.957-124.672-83.413c-45.184-18.688-94.763-29.056-146.859-29.056s-101.675 10.368-146.859 29.056c-46.976 19.456-89.259 47.957-124.672 83.413-35.456 35.456-63.957 77.739-83.413 124.672-18.688 45.184-29.056 94.763-29.056 146.859s10.368 101.675 29.056 146.859c19.456 46.976 47.957 89.259 83.413 124.672s77.739 63.957 124.672 83.413c45.184 18.688 94.763 29.056 146.859 29.056s101.675-10.368 146.859-29.056c46.976-19.456 89.259-47.957 124.672-83.413 35.456-35.456 63.957-77.739 83.413-124.672 18.688-45.184 29.056-94.763 29.056-146.859zM733.397 615.424c2.816 8.363 3.072 17.835 0 26.965-7.467 22.357-31.616 34.432-53.973 26.965l-271.36-90.453c-12.373-4.181-22.571-13.781-26.965-26.965l-90.453-271.36c-2.816-8.363-3.072-17.835 0-26.965 7.467-22.357 31.616-34.432 53.973-26.965l271.36 90.453c12.373 4.181 22.571 13.781 26.965 26.965zM625.451 561.451l-56.747-170.155-170.155-56.747 56.704 170.155z" />
<glyph unicode="&#xe946;" glyph-name="copy1" d="M469.333 618.667c-17.28 0-33.835-3.456-48.981-9.728-15.659-6.485-29.739-16-41.515-27.776s-21.291-25.856-27.776-41.515c-6.272-15.147-9.728-31.701-9.728-48.981v-384c0-17.28 3.456-33.835 9.728-48.981 6.485-15.701 16-29.781 27.776-41.557s25.856-21.291 41.557-27.776c15.104-6.229 31.659-9.685 48.939-9.685h384c17.28 0 33.835 3.456 48.981 9.728 15.701 6.485 29.781 16 41.557 27.776s21.291 25.856 27.776 41.557c6.229 15.104 9.685 31.659 9.685 48.939v384c0 17.28-3.456 33.835-9.728 48.981-6.485 15.701-16 29.781-27.776 41.557s-25.856 21.291-41.557 27.776c-15.104 6.229-31.659 9.685-48.939 9.685zM469.333 533.333h384c5.845 0 11.349-1.152 16.299-3.2 5.205-2.133 9.899-5.333 13.867-9.301s7.125-8.661 9.301-13.867c2.048-4.949 3.2-10.453 3.2-16.299v-384c0-5.845-1.152-11.349-3.2-16.299-2.133-5.205-5.333-9.899-9.301-13.867s-8.661-7.125-13.867-9.301c-4.949-2.048-10.453-3.2-16.299-3.2h-384c-5.845 0-11.349 1.152-16.299 3.2-5.205 2.133-9.899 5.333-13.867 9.301s-7.125 8.661-9.301 13.867c-2.048 4.949-3.2 10.453-3.2 16.299v384c0 5.845 1.152 11.349 3.2 16.299 2.133 5.205 5.333 9.899 9.301 13.867s8.661 7.125 13.867 9.301c4.949 2.048 10.453 3.2 16.299 3.2zM213.333 362.667h-42.667c-5.845 0-11.349 1.152-16.299 3.2-5.205 2.133-9.899 5.333-13.867 9.301s-7.125 8.661-9.301 13.867c-2.048 4.949-3.2 10.453-3.2 16.299v384c0 5.845 1.152 11.349 3.2 16.299 2.133 5.205 5.333 9.899 9.301 13.867s8.661 7.125 13.867 9.301c4.949 2.048 10.453 3.2 16.299 3.2h384c5.845 0 11.349-1.152 16.299-3.2 5.205-2.133 9.899-5.333 13.867-9.301s7.125-8.661 9.301-13.867c2.048-4.949 3.2-10.453 3.2-16.299v-42.667c0-23.552 19.115-42.667 42.667-42.667s42.667 19.115 42.667 42.667v42.667c0 17.28-3.456 33.835-9.728 48.981-6.485 15.701-16 29.781-27.776 41.557s-25.856 21.291-41.557 27.776c-15.104 6.229-31.659 9.685-48.939 9.685h-384c-17.28 0-33.835-3.456-48.981-9.728-15.659-6.485-29.739-16-41.515-27.776s-21.291-25.856-27.776-41.515c-6.272-15.147-9.728-31.701-9.728-48.981v-384c0-17.28 3.456-33.835 9.728-48.981 6.485-15.701 16-29.781 27.776-41.557s25.856-21.291 41.557-27.776c15.104-6.229 31.659-9.685 48.939-9.685h42.667c23.552 0 42.667 19.115 42.667 42.667s-19.115 42.667-42.667 42.667z" />
<glyph unicode="&#xe947;" glyph-name="corner-down-left" d="M810.667 789.333v-298.667c0-17.408-3.456-33.92-9.685-48.939-6.485-15.616-16-29.739-27.819-41.557s-25.941-21.333-41.557-27.819c-15.019-6.229-31.531-9.685-48.939-9.685h-409.003l140.501 140.501c16.683 16.683 16.683 43.691 0 60.331s-43.691 16.683-60.331 0l-213.333-213.333c-0.043-0.043-0.085-0.128-0.171-0.171-4.011-4.053-7.040-8.704-9.088-13.653-4.309-10.453-4.309-22.229 0-32.683 2.048-4.949 5.077-9.6 9.088-13.653 0.043-0.043 0.085-0.128 0.171-0.171l213.333-213.333c16.683-16.683 43.691-16.683 60.331 0s16.683 43.691 0 60.331l-140.501 140.501h409.003c28.8 0 56.405 5.717 81.579 16.171 26.155 10.837 49.621 26.667 69.248 46.293s35.499 43.136 46.293 69.248c10.496 25.216 16.213 52.821 16.213 81.621v298.667c0 23.552-19.115 42.667-42.667 42.667s-42.667-19.115-42.667-42.667z" />
<glyph unicode="&#xe948;" glyph-name="corner-down-right" d="M128 789.333v-298.667c0-28.8 5.717-56.405 16.171-81.579 10.837-26.155 26.667-49.621 46.293-69.248s43.136-35.499 69.248-46.293c25.216-10.496 52.821-16.213 81.621-16.213h409.003l-140.501-140.501c-16.683-16.683-16.683-43.691 0-60.331s43.691-16.683 60.331 0l213.333 213.333c4.096 4.096 7.168 8.832 9.259 13.867 2.091 5.12 3.2 10.539 3.243 15.957 0.043 5.675-1.024 11.349-3.243 16.64-2.091 5.035-5.163 9.771-9.259 13.867l-213.333 213.333c-16.683 16.683-43.691 16.683-60.331 0s-16.683-43.691 0-60.331l140.501-140.501h-409.003c-17.408 0-33.92 3.456-48.939 9.685-15.616 6.485-29.739 16-41.557 27.819s-21.333 25.941-27.819 41.557c-6.229 15.019-9.685 31.531-9.685 48.939v298.667c0 23.552-19.115 42.667-42.667 42.667s-42.667-19.115-42.667-42.667z" />
<glyph unicode="&#xe949;" glyph-name="corner-left-down" d="M853.333 832h-298.667c-28.8 0-56.405-5.717-81.579-16.171-26.155-10.837-49.621-26.667-69.248-46.293s-35.499-43.136-46.336-69.291c-10.453-25.173-16.171-52.779-16.171-81.579v-409.003l-140.501 140.501c-16.683 16.683-43.691 16.683-60.331 0s-16.683-43.691 0-60.331l213.333-213.333c4.096-4.096 8.832-7.168 13.867-9.259 5.12-2.091 10.539-3.2 15.957-3.243 5.675-0.043 11.349 1.024 16.64 3.243 5.035 2.091 9.771 5.163 13.867 9.259l213.333 213.333c16.683 16.683 16.683 43.691 0 60.331s-43.691 16.683-60.331 0l-140.501-140.501v409.003c0 17.408 3.456 33.92 9.685 48.939 6.485 15.616 16 29.739 27.819 41.557s25.941 21.333 41.557 27.819c15.019 6.229 31.531 9.685 48.939 9.685h298.667c23.552 0 42.667 19.115 42.667 42.667s-19.115 42.667-42.667 42.667z" />
<glyph unicode="&#xe94a;" glyph-name="corner-left-up" d="M853.333 149.333h-298.667c-17.408 0-33.92 3.456-48.939 9.685-15.616 6.485-29.739 16-41.557 27.819s-21.333 25.941-27.819 41.557c-6.229 15.019-9.685 31.531-9.685 48.939v409.003l140.501-140.501c16.683-16.683 43.691-16.683 60.331 0s16.683 43.691 0 60.331l-213.333 213.333c-0.043 0.043-0.128 0.085-0.171 0.171-4.053 4.011-8.704 7.040-13.653 9.088-10.453 4.309-22.229 4.309-32.683 0-5.035-2.091-9.728-5.163-13.824-9.259l-213.333-213.333c-16.683-16.683-16.683-43.691 0-60.331s43.691-16.683 60.331 0l140.501 140.501v-409.003c0-28.8 5.717-56.405 16.171-81.579 10.837-26.155 26.667-49.621 46.293-69.248s43.136-35.499 69.248-46.293c25.216-10.496 52.821-16.213 81.621-16.213h298.667c23.552 0 42.667 19.115 42.667 42.667s-19.115 42.667-42.667 42.667z" />
<glyph unicode="&#xe94b;" glyph-name="corner-right-down" d="M170.667 746.667h298.667c17.408 0 33.92-3.456 48.939-9.685 15.616-6.485 29.739-16 41.557-27.819s21.333-25.941 27.819-41.557c6.229-15.019 9.685-31.531 9.685-48.939v-409.003l-140.501 140.501c-16.683 16.683-43.691 16.683-60.331 0s-16.683-43.691 0-60.331l213.333-213.333c4.096-4.096 8.832-7.168 13.867-9.259 5.12-2.091 10.539-3.2 15.957-3.243 5.675-0.043 11.349 1.024 16.64 3.243 5.035 2.091 9.771 5.163 13.867 9.259l213.333 213.333c16.683 16.683 16.683 43.691 0 60.331s-43.691 16.683-60.331 0l-140.501-140.501v409.003c0 28.8-5.717 56.405-16.171 81.579-10.837 26.155-26.667 49.621-46.293 69.248s-43.136 35.499-69.248 46.293c-25.216 10.496-52.821 16.213-81.621 16.213h-298.667c-23.552 0-42.667-19.115-42.667-42.667s19.115-42.667 42.667-42.667z" />
<glyph unicode="&#xe94c;" glyph-name="corner-right-up" d="M170.667 64h298.667c28.8 0 56.405 5.717 81.579 16.171 26.155 10.837 49.621 26.667 69.248 46.293s35.499 43.136 46.293 69.248c10.496 25.216 16.213 52.821 16.213 81.621v409.003l140.501-140.501c16.683-16.683 43.691-16.683 60.331 0s16.683 43.691 0 60.331l-213.333 213.333c-0.043 0.043-0.128 0.085-0.171 0.171-4.053 4.011-8.704 7.040-13.653 9.088-10.453 4.309-22.229 4.309-32.683 0-4.949-2.048-9.6-5.077-13.653-9.088-0.043-0.043-0.128-0.085-0.171-0.171l-213.333-213.333c-16.683-16.683-16.683-43.691 0-60.331s43.691-16.683 60.331 0l140.501 140.501v-409.003c0-17.408-3.456-33.92-9.685-48.939-6.485-15.616-16-29.739-27.819-41.557s-25.941-21.333-41.557-27.819c-15.019-6.229-31.531-9.685-48.939-9.685h-298.667c-23.552 0-42.667-19.115-42.667-42.667s19.115-42.667 42.667-42.667z" />
<glyph unicode="&#xe94d;" glyph-name="corner-up-left" d="M896 106.667v298.667c0 28.8-5.717 56.405-16.171 81.579-10.837 26.155-26.667 49.621-46.293 69.248s-43.136 35.499-69.248 46.293c-25.216 10.496-52.821 16.213-81.621 16.213h-409.003l140.501 140.501c16.683 16.683 16.683 43.691 0 60.331s-43.691 16.683-60.331 0l-213.333-213.333c-0.043-0.043-0.085-0.128-0.171-0.171-4.011-4.053-7.040-8.704-9.088-13.653-4.309-10.453-4.309-22.229 0-32.683 2.091-5.035 5.163-9.728 9.259-13.824l213.333-213.333c16.683-16.683 43.691-16.683 60.331 0s16.683 43.691 0 60.331l-140.501 140.501h409.003c17.408 0 33.92-3.456 48.939-9.685 15.616-6.485 29.739-16 41.557-27.819s21.333-25.941 27.819-41.557c6.229-15.019 9.685-31.531 9.685-48.939v-298.667c0-23.552 19.115-42.667 42.667-42.667s42.667 19.115 42.667 42.667z" />
</font>
</defs>
</svg>
